[MINI Super-HQ] USS Indianapolis: Men of Courage (2016) ยูเอสเอส อินเดียนาโพลิส: กองเรือหาญกล้าฝ่าทะเลเดือด [1080p] [พากย์ไทย 2.0 + เสียงอังกฤษ DTS] [บรรยายไทย + อังกฤษ] [เสียงไทย + ซับไทย] [DOSYAUPLOAD]

3

โหลดหนัง USS Indianapolis: Men of Courage (2016) ยูเอสเอส อินเดียนาโพลิส: กองเรือหาญกล้าฝ่าทะเลเดือด

USS Indianapolis: Men of Courage | October 14, 2016 (United States) Summary: During World War II, an American navy ship is sunk by a Japanese submarine leaving 890 crewmen stranded in shark infested waters.
Countries: United StatesLanguages: English, Japanese

เรื่องย่อ USS Indianapolis: Men of Courage (2016) ยูเอสเอส อินเดียนาโพลิส: กองเรือหาญกล้าฝ่าทะเลเดือด

นิโคลัส เคจ จะรับบทเป็น ชาร์ลส์ บัตเลอร์ แมคเวย์ กัปตันเรือบรรทุกชิ้นส่วนระเบิดอะตอมลูกแรกที่ถูกโจมตีด้วยระเบิดตอร์ปิโดจนอับปางในทะเลแปซิฟิกใต้เมื่อปี 1945 ส่งผลให้ลูกเรือกว่า 300 คนจาก 1,196 ชีวิตจมลงพร้อมกับซากเรือส่วนคนที่เหลือก็ค่อย ๆ เสียชีวิตจากการสูญเสียน้ำในร่างกาย ภาวะน้ำทะเลเป็นพิษ และถูกทำร้ายโดยฉลาม จนท้ายที่สุดเหลือผู้รอดชีวิตจากเหตุการณ์ครั้งนี้เพียง 317 คนโดยกัปตัน ชาร์ลส์ บัตเลอร์ แมคเวย์ ถูกศาลทหารตัดสินให้มีความผิดก่อนพ้นโทษในอีกครึ่งศตวรรษให้หลัง!!!

Complete name : [MINI Super-HQ]_USS.Indianapolis.Men.of.Courage.2016.1080p.BrRip.DTS.x264.THM.One2loadup.com.mkv
Format : Matroska
Format version : Version 4
File size : 4.04 GiB
Duration : 2 h 10 min
Overall bit rate : 4 442 kb/s
Movie name : [MINI Super-HQ]_USS.Indianapolis.Men.of.Courage.2016.1080p.BrRip.DTS.x264.THM.One2loadup.com
Encoded date : UTC 2021-03-11 02:22:32
Writing application : mkvmerge v55.0.0 (‘Waiting For Space’) 64-bit
Writing library : libebml v1.4.2 + libmatroska v1.6.4

Video
ID : 1
Format : AVC
Format/Info : Advanced Video Codec
Format profile : [email protected]
Format settings : CABAC / 4 Ref Frames
Format settings, CABAC : Yes
Format settings, ReFrames : 4 frames
Codec ID : V_MPEG4/ISO/AVC
Duration : 2 h 10 min
Bit rate : 3 435 kb/s
Width : 1 920 pixels
Height : 800 pixels
Display aspect ratio : 2.40:1
Frame rate mode : Constant
Frame rate : 23.976 (24000/1001) FPS
Color space : YUV
Chroma subsampling : 4:2:0
Bit depth : 8 bits
Scan type : Progressive
Bits/(Pixel*Frame) : 0.093
Stream size : 3.12 GiB (77%)
Title : [MINI Super-HQ]_USS.Indianapolis.Men.of.Courage.2016.1080p.BrRip.DTS.x264.THM.One2loadup.com
Writing library : x264 core 130 r2273 b3065e6
Encoding settings : cabac=1 / ref=3 / deblock=1:0:0 / analyse=0x3:0x113 / me=umh / subme=11 / psy=1 / psy_rd=1.00:0.00 / mixed_ref=1 / me_range=48 / chroma_me=1 / trellis=2 / 8x8dct=1 / cqm=0 / deadzone=21,11 / fast_pskip=1 / chroma_qp_offset=-2 / threads=10 / lookahead_threads=1 / sliced_threads=0 / nr=0 / decimate=1 / interlaced=0 / bluray_compat=0 / constrained_intra=0 / bframes=3 / b_pyramid=2 / b_adapt=1 / b_bias=0 / direct=1 / weightb=1 / open_gop=0 / weightp=2 / keyint=240 / keyint_min=24 / scenecut=40 / intra_refresh=0 / rc_lookahead=40 / rc=2pass / mbtree=1 / bitrate=3435 / ratetol=1.0 / qcomp=0.60 / qpmin=0 / qpmax=69 / qpstep=4 / cplxblur=20.0 / qblur=0.5 / ip_ratio=1.40 / aq=1:1.00
Language : English
Default : Yes
Forced : No
Color range : Limited
Color primaries : BT.709
Transfer characteristics : BT.709
Matrix coefficients : BT.709

Audio #1
ID : 2
Format : DTS
Format/Info : Digital Theater Systems
Codec ID : A_DTS
Duration : 2 h 10 min
Bit rate mode : Constant
Bit rate : 768 kb/s
Channel(s) : 6 channels
Channel layout : C L R Ls Rs LFE
Sampling rate : 48.0 kHz
Frame rate : 93.750 FPS (512 SPF)
Bit depth : 16 bits
Compression mode : Lossy
Stream size : 715 MiB (17%)
Title : English DTS
Language : English
Default : No
Forced : No

Audio #2
ID : 3
Format : AAC LC
Format/Info : Advanced Audio Codec Low Complexity
Codec ID : A_AAC-2
Duration : 2 h 10 min
Bit rate : 128 kb/s
Channel(s) : 2 channels
Channel layout : L R
Sampling rate : 48.0 kHz
Frame rate : 46.875 FPS (1024 SPF)
Compression mode : Lossy
Stream size : 119 MiB (3%)
Title : Thai Master 2.0
Default : Yes
Forced : Yes

Text #1
ID : 4
Format : VobSub
Muxing mode : zlib
Codec ID : S_VOBSUB
Codec ID/Info : Picture based subtitle format used on DVDs
Duration : 2 h 0 min
Bit rate : 2 697 b/s
Count of elements : 1596
Stream size : 2.33 MiB (0%)
Title : Thai 480p
Language : Thai
Default : No
Forced : No

Text #2
ID : 5
Format : VobSub
Muxing mode : zlib
Codec ID : S_VOBSUB
Codec ID/Info : Picture based subtitle format used on DVDs
Duration : 2 h 0 min
Bit rate : 5 146 b/s
Count of elements : 1596
Stream size : 4.44 MiB (0%)
Title : Thai 720p
Language : Thai
Default : No
Forced : No

Text #3
ID : 6
Format : VobSub
Muxing mode : zlib
Codec ID : S_VOBSUB
Codec ID/Info : Picture based subtitle format used on DVDs
Duration : 2 h 0 min
Bit rate : 9 422 b/s
Count of elements : 1596
Stream size : 8.13 MiB (0%)
Title : Thai 1080p
Language : Thai
Default : Yes
Forced : Yes

Text #4
ID : 7
Format : VobSub
Muxing mode : zlib
Codec ID : S_VOBSUB
Codec ID/Info : Picture based subtitle format used on DVDs
Duration : 2 h 0 min
Bit rate : 9 399 b/s
Count of elements : 1596
Stream size : 8.11 MiB (0%)
Title : Thai 1080p Yellow
Language : Thai
Default : No
Forced : No

Text #5
ID : 8
Format : VobSub
Muxing mode : zlib
Codec ID : S_VOBSUB
Codec ID/Info : Picture based subtitle format used on DVDs
Duration : 2 h 0 min
Bit rate : 9 477 b/s
Count of elements : 1596
Stream size : 8.18 MiB (0%)
Title : Thai 1080p Out
Language : Thai
Default : No
Forced : No

Text #6
ID : 9
Format : VobSub
Muxing mode : zlib
Codec ID : S_VOBSUB
Codec ID/Info : Picture based subtitle format used on DVDs
Duration : 2 h 0 min
Bit rate : 13.0 kb/s
Count of elements : 1596
Stream size : 11.2 MiB (0%)
Title : Thai 1080p BIG
Language : Thai
Default : No
Forced : No

Text #7
ID : 10
Format : VobSub
Muxing mode : zlib
Codec ID : S_VOBSUB
Codec ID/Info : Picture based subtitle format used on DVDs
Duration : 2 h 0 min
Bit rate : 13.0 kb/s
Count of elements : 1596
Stream size : 11.2 MiB (0%)
Title : Thai 1080p Out [BIG]
Language : Thai
Default : No
Forced : No

Text #8
ID : 11
Format : PGS
Muxing mode : zlib
Codec ID : S_HDMV/PGS
Codec ID/Info : Picture based subtitle format used on BDs/HD-DVDs
Duration : 2 h 0 min
Bit rate : 39.8 kb/s
Count of elements : 3200
Stream size : 34.3 MiB (1%)
Title : Thai PGS
Language : Thai
Default : No
Forced : No

Text #9
ID : 12
Format : PGS
Muxing mode : zlib
Codec ID : S_HDMV/PGS
Codec ID/Info : Picture based subtitle format used on BDs/HD-DVDs
Duration : 2 h 0 min
Bit rate : 39.8 kb/s
Count of elements : 3200
Stream size : 34.4 MiB (1%)
Title : Thai PGS Yellow
Language : Thai
Default : No
Forced : No

Text #10
ID : 13
Format : PGS
Muxing mode : zlib
Codec ID : S_HDMV/PGS
Codec ID/Info : Picture based subtitle format used on BDs/HD-DVDs
Duration : 2 h 0 min
Bit rate : 40.3 kb/s
Count of elements : 3200
Stream size : 34.8 MiB (1%)
Title : Thai PGS Out
Language : Thai
Default : No
Forced : No

Text #11
ID : 14
Format : PGS
Muxing mode : zlib
Codec ID : S_HDMV/PGS
Codec ID/Info : Picture based subtitle format used on BDs/HD-DVDs
Duration : 1 h 59 min
Bit rate : 33.2 kb/s
Count of elements : 2960
Stream size : 28.4 MiB (1%)
Title : English
Language : English
Default : No
Forced : No

Menu
00:00:00.000 : en:Chapter 1
00:07:27.364 : en:Chapter 2
00:15:49.740 : en:Chapter 3
00:22:52.788 : en:Chapter 4
00:30:16.314 : en:Chapter 5
00:37:44.679 : en:Chapter 6
00:45:55.628 : en:Chapter 7
00:53:28.497 : en:Chapter 8
00:59:52.339 : en:Chapter 9
01:07:39.889 : en:Chapter 10
01:15:58.554 : en:Chapter 11
01:23:01.727 : en:Chapter 12
01:31:18.181 : en:Chapter 13
01:37:37.894 : en:Chapter 14
01:45:20.272 : en:Chapter 15
01:53:53.994 : en:Chapter 16

DOWNLOAD


PART01 |||| PART02 |||| PART03 |||| PART04 |||| PART05

PART01 |||| PART02 |||| PART03 |||| PART04 |||| PART05

PART01 |||| PART02 |||| PART03 |||| PART04 |||| PART05

PART01 |||| PART02 |||| PART03 |||| PART04 |||| PART05

PART01 |||| PART02 |||| PART03 |||| PART04 |||| PART05


3 Comments
  1. Thawatchai
    Thawatchai says

    ยังไม่ได้อัพโหลด Zolofile ครับ

    1. Admin
      Admin says

      แก้ไขเรียบร้อยยฮ๊ะ

      1. Thawatchai
        Thawatchai says

        ขอบคุณครับ

Leave A Reply

อีเมล์ของคุณจะไม่แสดงให้เห็น Your email address will not be published.

%d bloggers like this: