[MINI Super-HQ] U-571 (2000) ดิ่งเด็ดขั้วมหาอำนาจ [1080p] [พากย์ไทย 5.1 + เสียงอังกฤษ 5.1] [บรรยายอังกฤษ] [เสียงไทย + ซับอังกฤษ] [USERLOAD]

0

โหลดหนัง U-571 (2000) ดิ่งเด็ดขั้วมหาอำนาจ

U-571 116min | Action, War | April 21, 2000 (United States) Summary: A German submarine is boarded by disguised American submariners trying to capture their Enigma cipher machine.
Countries: France, United States, ItalyLanguages: English, German

เรื่องย่อ U-571 (2000) ดิ่งเด็ดขั้วมหาอำนาจ

ผู้บังคับการเรือ เรือโทไมค์ ดาห์ลเกร็น (บิล แพกซ์ตัน) วางมือจากการบัญชาการเรือรบ เอส-33 ซึ่งเป็นเรือดำน้ำแสนยานุภาพทรงพลัง ของสหรัฐอเมริกา ในสงครามโลกครั้งที่ 1 ถึงแม้ว่าอายุของมัน จะมากกว่าลูกเรือทุกคนนับสิบปี รวมถึงจะดูโบราณ และมีจุดบกพร่องมากมาย แต่มันก็ยังคงเป็นอาวุธที่ร้ายแรง เวลานี้มันจะต้องพิสูจน์พิษสงของตัวเองอีกครั้ง ในการฝ่าสมรภูมิรบในสงครามโลกครั้งที่ 2 เรือโทแอนดรูว์ ไทเลอร์ (แม็ทธิว แม็คคอนาเฮย์) เป็นนายทหารระดับรองผู้บังคับการรองจาก ดาห์ลเกร็น ตลอดเวลาเขารอคอยโอกาส ที่จะทำให้เขาได้บังคับการเรือดำน้ำด้วยตัวเอง บางทีหลังจากผ่านภารกิจนี้ไปได้ด้วยดี หน้าที่ของไทเลอร์คือสั่งการ และควบคุมลูกเรือ โดยมีผู้ช่วยคือ เรือโทพีท เอ็มเม็ตต์ (จอน บอน โจวี่) และ เอ็นไซน์ ลาร์สัน (แม็ทธิว เซ็ตเทิล) รายนามลูกเรือที่ประจำการบนเรือรบ เอส-33 ยังประกอบไปด้วยหมวดคลูทช์ (ฮาร์วี่ย์ ไคเทล), นายทหารสื่อสารเวนท์ซ (แจ็ค โนสเวิร์ธทิ), หน่วยพลาธิการเอ็ดดี้ (ที.ซี. คาร์สัน), ทริกเกอร์ (โธมัส กิวรี่), มาซซอล่า (เอริค พาลาดิโน่), แท็งค์ (เดฟ พาวเวอร์), กริกก์ส (เดิร์ก ชีทวู๊ด) และ แร็บบิท (วิล เอสท์ส) ล้วนแล้วแต่เป็นผู้ชายธรรมดาๆ บางคนเพิ่งจบไฮสกูลด้วยซ้ำ, แต่ทหารเรือกลุ่มนี้ จะต้องร่วมปฎิบัติภารกิจเพื่อชาติ

Complete name : [MINI Super-HQ]_U-571.2000.1080p.WEB-DL.EAC3.x264.One2loadup.com.mkv
Format : Matroska
Format version : Version 4
File size : 4.40 GiB
Duration : 1 h 56 min
Overall bit rate : 5 417 kb/s
Movie name : [MINI Super-HQ]_U-571.2000.1080p.WEB-DL.EAC3.x264.One2loadup.com
Encoded date : UTC 2010-02-22 21:41:31
Writing application : mkvmerge v5.9.0 (‘On The Loose’) built on Dec 9 2012 15:37:01
Writing library : libebml v1.3.0 + libmatroska v1.4.0
Attachments : cluvhd4you.png / clubhd4you.net.jpg

Video
ID : 1
Format : AVC
Format/Info : Advanced Video Codec
Format profile : [email protected]
Format settings : CABAC / 3 Ref Frames
Format settings, CABAC : Yes
Format settings, Reference : 3 frames
Format settings, GOP : M=3, N=24
Muxing mode : Header stripping
Codec ID : V_MPEG4/ISO/AVC
Duration : 1 h 56 min
Bit rate : 4 164 kb/s
Width : 1 920 pixels
Height : 814 pixels
Display aspect ratio : 2.35:1
Frame rate mode : Constant
Frame rate : 23.976 (24000/1001) FPS
Color space : YUV
Chroma subsampling : 4:2:0
Bit depth : 8 bits
Scan type : Progressive
Bits/(Pixel*Frame) : 0.111
Stream size : 3.38 GiB (77%)
Title : [MINI Super-HQ]_U-571.2000.1080p.WEB-DL.EAC3.x264.One2loadup.com
Language : English
Default : Yes
Forced : No
Color range : Limited
Color primaries : BT.709
Transfer characteristics : BT.709
Matrix coefficients : BT.709

Audio #1
ID : 2
Format : AC-3
Format/Info : Audio Coding 3
Commercial name : Dolby Digital
Muxing mode : Header stripping
Codec ID : A_AC3
Duration : 1 h 56 min
Bit rate mode : Constant
Bit rate : 448 kb/s
Channel(s) : 6 channels
Channel layout : L R C LFE Ls Rs
Sampling rate : 48.0 kHz
Frame rate : 31.250 FPS (1536 SPF)
Compression mode : Lossy
Delay relative to video : -5 ms
Stream size : 372 MiB (8%)
Title : Thai 5.1
Language : Thai
Service kind : Complete Main
Default : No
Forced : No

Audio #2
ID : 3
Format : E-AC-3
Format/Info : Enhanced AC-3
Commercial name : Dolby Digital Plus
Muxing mode : Header stripping
Codec ID : A_EAC3
Duration : 1 h 56 min
Bit rate mode : Constant
Bit rate : 768 kb/s
Channel(s) : 6 channels
Channel layout : L R C LFE Ls Rs
Sampling rate : 48.0 kHz
Frame rate : 31.250 FPS (1536 SPF)
Compression mode : Lossy
Delay relative to video : -5 ms
Stream size : 639 MiB (14%)
Title : English 5.1
Language : English
Service kind : Complete Main
Default : No
Forced : No

Text #1
ID : 4
Format : PGS
Muxing mode : zlib
Codec ID : S_HDMV/PGS
Codec ID/Info : Picture based subtitle format used on BDs/HD-DVDs
Duration : 1 h 46 min
Bit rate : 32.3 kb/s
Count of elements : 2110
Stream size : 24.7 MiB (1%)
Title : English PGS
Language : English
Default : No
Forced : No

Text #2
ID : 5
Format : PGS
Muxing mode : zlib
Codec ID : S_HDMV/PGS
Codec ID/Info : Picture based subtitle format used on BDs/HD-DVDs
Duration : 1 h 46 min
Bit rate : 32.3 kb/s
Count of elements : 2110
Stream size : 24.7 MiB (1%)
Title : English PGS
Language : English
Default : No
Forced : No

DOWNLOAD


PART01 |||| PART02 |||| PART03 |||| PART04 |||| PART05

PART01 |||| PART02 |||| PART03 |||| PART04 |||| PART05

PART01 |||| PART02 |||| PART03 |||| PART04 |||| PART05

PART01 |||| PART02 |||| PART03 |||| PART04 |||| PART05

PART01 |||| PART02 |||| PART03 |||| PART04 |||| PART05


Leave A Reply

อีเมล์ของคุณจะไม่แสดงให้เห็น Your email address will not be published.

%d bloggers like this: