[MINI Super-HQ] Tomorrow I Will Date With Yesterday’s You (2016) พรุ่งนี้ผมจะเดตกับเธอคนเมื่อวาน [1080p] [พากย์ไทย DTS + เสียงญี่ปุ่น DTS] [บรรยายไทย + อังกฤษ] [เสียงไทย + ซับไทย] [PANDAFILE]

0

Tomorrow I Will Date With Yesterday's You (2016)

โหลดหนัง Tomorrow I Will Date With Yesterday’s You (2016) พรุ่งนี้ผมจะเดตกับเธอคนเมื่อวาน

My Tomorrow, Your Yesterday | December 17, 2016 (Japan) Summary:
Countries: JapanLanguages: Japanese

เรื่องย่อ Tomorrow I Will Date With Yesterday’s You (2016) พรุ่งนี้ผมจะเดตกับเธอคนเมื่อวาน

สร้างจากนิยายชื่อดังที่ที่ฮิตโดนใจหนุ่มสาวทั่วญี่ป ุ่น และมียอดจำหน่ายสูงถึง 1 ล้านเล่มใน 2 ปีเรื่องราวของ ทาคาโตชิ (โซตะ ฟุคุชิ ) นักศึกษามหาวิทยาลัย ที่ตกหลุมรักสาวสวยลึกลับ บนรถไฟ เขาตามจีบเธอ จนรู้ว่าเธอชื่อ เอมิ ( นานะ โคมัตสึ ) พวกเขาตกลงจะเดทกัน 30 วัน และ ในวันสุดท้าย เมื่อ ทาคาโตชิ สารภาพรัก กับ เธอ เขาถึงรู้ว่า ความรักของพวกเขาไม่มีวันเป็นไปได้ เพราะโลกของพวกเขาคือโลกคู่ขนานที่ทุก ๆ 5 ปี เวลาจะมาบรรจบ ทาคาโตชิ และ เอมิ จะได้เจอกันแค่ 1 ครั้ง ใน 5 ปี และทุกครั้งที่พวกเขาได้พบกันเวลาของทาคาโตชิ จะเดินไปข้างหน้า แต่เวลาของเอมิกลับลดอายุเธอลง เรื่อย ๆ .. แต่ถึงแบบนั้น พวกเขา ก็ตัดสินใจจะกลับมาเจอกันอีกทุก ๆ 5 ปี Tomorrow I Will Date With Yesterday s You ถ่ายทำใน เกียวโต และ โตเกียว ผ่านฤดูกาลต่าง ๆเราจะได้เห็นทิวทัศน์ฉากที่งดงาม ที่สร้างความผูกพันละหว่าง 2 ตัวละคร สถานที่ ๆ พวกเขา เดทกันทุก ๆ 5 ปีความทรงจำของความรักที่ ทาคาโตชิ เชื่อว่า คนเราไม่ควรยอมแพ้ให้โชคชะตา คนเราควรต่อสู้และลิขิตโชคชะตาความรักของเราเอง!!!

Complete name : [MINI Super-HQ]_Tomorrow.I.Will.Date.with.Yesterday’s.You.2016.1080p.BrRip.DTS.x264.One2loadup.com.mkv
Format : Matroska
Format version : Version 4
File size : 3.89 GiB
Duration : 1 h 50 min
Overall bit rate : 5 042 kb/s
Movie name : [MINI Super-HQ]_Tomorrow.I.Will.Date.with.Yesterday’s.You.2016.1080p.BrRip.DTS.x264.One2loadup.com
Encoded date : UTC 2010-02-22 21:41:31
Writing application : mkvmerge v5.9.0 (‘On The Loose’) built on Dec 9 2012 15:37:01
Writing library : libebml v1.3.0 + libmatroska v1.4.0

Video
ID : 1
Format : AVC
Format/Info : Advanced Video Codec
Format profile : [email protected]
Format settings : CABAC / 4 Ref Frames
Format settings, CABAC : Yes
Format settings, ReFrames : 4 frames
Codec ID : V_MPEG4/ISO/AVC
Duration : 1 h 50 min
Bit rate : 3 435 kb/s
Width : 1 920 pixels
Height : 804 pixels
Display aspect ratio : 2.40:1
Frame rate mode : Constant
Frame rate : 23.976 FPS
Color space : YUV
Chroma subsampling : 4:2:0
Bit depth : 8 bits
Scan type : Progressive
Bits/(Pixel*Frame) : 0.093
Stream size : 2.65 GiB (68%)
Title : [MINI Super-HQ]_Tomorrow.I.Will.Date.with.Yesterday’s.You.2016.1080p.BrRip.DTS.x264.One2loadup.com
Writing library : x264 core 130 r2273 b3065e6
Encoding settings : cabac=1 / ref=3 / deblock=1:0:0 / analyse=0x3:0x113 / me=umh / subme=11 / psy=1 / psy_rd=1.00:0.00 / mixed_ref=1 / me_range=48 / chroma_me=1 / trellis=2 / 8x8dct=1 / cqm=0 / deadzone=21,11 / fast_pskip=1 / chroma_qp_offset=-2 / threads=22 / lookahead_threads=1 / sliced_threads=0 / nr=0 / decimate=1 / interlaced=0 / bluray_compat=0 / constrained_intra=0 / bframes=3 / b_pyramid=2 / b_adapt=1 / b_bias=0 / direct=1 / weightb=1 / open_gop=0 / weightp=2 / keyint=240 / keyint_min=24 / scenecut=40 / intra_refresh=0 / rc_lookahead=40 / rc=2pass / mbtree=1 / bitrate=3435 / ratetol=1.0 / qcomp=0.60 / qpmin=0 / qpmax=69 / qpstep=4 / cplxblur=20.0 / qblur=0.5 / ip_ratio=1.40 / aq=1:1.00
Language : Japanese
Default : Yes
Forced : No
Color range : Limited
Color primaries : BT.709
Transfer characteristics : BT.709
Matrix coefficients : BT.709

Audio #1
ID : 2
Format : DTS
Format/Info : Digital Theater Systems
Codec ID : A_DTS
Duration : 1 h 50 min
Bit rate mode : Constant
Bit rate : 755 kb/s
Channel(s) : 6 channels
Channel layout : C L R Ls Rs LFE
Sampling rate : 48.0 kHz
Frame rate : 93.750 FPS (512 SPF)
Bit depth : 24 bits
Compression mode : Lossy
Stream size : 596 MiB (15%)
Title : Thai DTS BluRay Master
Language : Thai
Default : Yes
Forced : Yes

Audio #2
ID : 3
Format : DTS
Format/Info : Digital Theater Systems
Codec ID : A_DTS
Duration : 1 h 50 min
Bit rate mode : Constant
Bit rate : 755 kb/s
Channel(s) : 6 channels
Channel layout : C L R Ls Rs LFE
Sampling rate : 48.0 kHz
Frame rate : 93.750 FPS (512 SPF)
Bit depth : 24 bits
Compression mode : Lossy
Stream size : 596 MiB (15%)
Title : Japanese DTS
Language : Japanese
Default : No
Forced : No

Text #1
ID : 4
Format : VobSub
Codec ID : S_VOBSUB
Codec ID/Info : Picture based subtitle format used on DVDs
Language : Thai
Default : Yes
Forced : Yes

Text #2
ID : 5
Format : VobSub
Codec ID : S_VOBSUB
Codec ID/Info : Picture based subtitle format used on DVDs
Title : Thai 480p
Language : Thai
Default : No
Forced : No

Text #3
ID : 6
Format : VobSub
Codec ID : S_VOBSUB
Codec ID/Info : Picture based subtitle format used on DVDs
Title : Thai 1080p
Language : Thai
Default : No
Forced : No

Text #4
ID : 7
Format : VobSub
Codec ID : S_VOBSUB
Codec ID/Info : Picture based subtitle format used on DVDs
Title : Thai 1080p Yellow
Language : Thai
Default : No
Forced : No

Text #5
ID : 8
Format : VobSub
Codec ID : S_VOBSUB
Codec ID/Info : Picture based subtitle format used on DVDs
Title : Thai 1080p Out
Language : Thai
Default : No
Forced : No

Text #6
ID : 9
Format : VobSub
Codec ID : S_VOBSUB
Codec ID/Info : Picture based subtitle format used on DVDs
Title : Thai 1080p BIG
Language : Thai
Default : No
Forced : No

Text #7
ID : 10
Format : PGS
Codec ID : S_HDMV/PGS
Codec ID/Info : Picture based subtitle format used on BDs/HD-DVDs
Title : Thai PGS BluRay Master
Language : Thai
Default : No
Forced : No

Text #8
ID : 11
Format : PGS
Codec ID : S_HDMV/PGS
Codec ID/Info : Picture based subtitle format used on BDs/HD-DVDs
Title : Thai PGS Out
Language : Thai
Default : No
Forced : No

Text #9
ID : 12
Format : PGS
Codec ID : S_HDMV/PGS
Codec ID/Info : Picture based subtitle format used on BDs/HD-DVDs
Title : English
Language : English
Default : No
Forced : No

Menu
00:00:00.000 : en:00:00:00.000
00:07:56.058 : en:00:07:56.058
00:14:32.997 : en:00:14:32.997
00:22:54.998 : en:00:22:54.998
00:30:55.770 : en:00:30:55.770
00:35:30.461 : en:00:35:30.461
00:44:53.232 : en:00:44:53.232
00:56:02.442 : en:00:56:02.442
01:02:45.762 : en:01:02:45.762
01:10:53.040 : en:01:10:53.040
01:17:15.630 : en:01:17:15.630
01:27:17.023 : en:01:27:17.023
01:36:41.796 : en:01:36:41.796
01:45:29.865 : en:01:45:29.865

DOWNLOAD


PART01 |||| PART02 |||| PART03 |||| PART04

PART01 |||| PART02 |||| PART03 |||| PART04

PART01 |||| PART02 |||| PART03 |||| PART04

PART01 |||| PART02 |||| PART03 |||| PART04

PART01 |||| PART02 |||| PART03 |||| PART04


Leave A Reply

อีเมล์ของคุณจะไม่แสดงให้เห็น Your email address will not be published.

%d bloggers like this: