[MINI Super-HQ] Titanic (1997) ไททานิค [1080p] [พากย์ไทย 5.1 + เสียงอังกฤษ DTS] [บรรยายไทย + อังกฤษ] [เสียงไทย + ซับไทย] [PANDAFILE]

4

Titanic (1997) ไททานิค

โหลดหนัง Titanic (1997) ไททานิค

Titanic | December 19, 1997 (United States) Summary: A seventeen-year-old aristocrat falls in love with a kind but poor artist aboard the luxurious, ill-fated R.M.S. Titanic.
Countries: United StatesLanguages: English, Swedish, Italian, French

เรื่องย่อ Titanic (1997) ไททานิค

เริ่มเรื่องขึ้นเมื่อมีการพบซากเรือที่มหาสมุทรแอตแลนติคเหนือ ปี 1985 บร๊อค โลเวตนักสำรวจชาวอเมริกัน ได้ดำลงไปสำรวจหาซากเรือเพื่อหาสมบัติอันล้ำค่า แต่กลับได้พบภาพวาดลายเส้น รูปหญิงสาวเปลือยกายที่สวม สร้อยคอและจี้เพชรเท่านั้น ผู้ที่เป็นแบบในภาพวาดก็คือโรส และเธอได้เล่าเหตุการณ์ให้ทุกคนฟัง โรส ดิววิท บูเคเตอร์ สาวงามผู้เป็นบุตรีจากครอบครัวชั้นสูง ได้เดินทางมากับเรือไททานิคพร้อมแม่ และคู่หมั้นหนุ่ม คาล ฮ๊อคลี่ย์ มหาเศรษฐีผู้เย่อหยิ่ง และเอาแต่ใจตัวเอง ทั้งคู่จะเข้าพิธีแต่งงาน หลังเดินทางถึงฟิลลาเดลเฟีย โรสไม่พอใจที่ถูกบีบบังคับ และทนรับชีวิตที่น่าเบื่อหน่ายและบีบคั้นไม่ไหว ด้วยอารมณ์ชั่ววูบ เธอวิ่งไปที่ด้านท้ายเรือและพยายามที่จะฆ่าตัวตาย แต่แล้วโรสก็พบกับ แจ๊ค ชายหนุ่มยากไร้ ผู้มีชีวิตเป็นอิสระ ได้เห็นเหตุการณ์ และเขาได้ช่วยชีวิตเธอไว้ทันท่วงที คาล ฮ๊อคลี่ย์ได้ตอบแทนแจ๊ค ด้วยการชวนขึ้นไปร่วมดินเนอร์กับผู้โดยสารชั้นหนึ่ง แจ๊คโดนเยาะเย้นถากถางในระหว่างดินเนอร์ แต่เขาก็ตอบได้อย่างชาญฉลาดและเป็นตัวของเขาเอง ทำให้โรสประทับใจตัวแจ๊คมากขึ้น แจ๊คพาเธอไปรู้จักชีวิตอีกด้านที่เป็นอิสระของเขา สาวน้อยได้รับในสิ่งที่เธอขาดมาตลอด นั่นคือความเป็นอิสระในการได้ทำทุกอย่างที่ใจต้องการ โรสใช้ชีวิตที่สนุกสนานในส่วนของผู้โดยสารชั้นสาม ความสัมพันธ์ระหว่างเธอกับคู่หมั้นหนุ่มเลวร้ายลง ในขณะที่ความสัมพันธ์กับแจ๊คได้ลึกซึ้งขึ้นเรื่อยๆ สร้างความริษยาให้กับ ฮ๊อคลี่ย์ จนตัดสินใจใส่ร้ายแจ๊ค และจับไปคุมขังที่ใต้ท้องเรือ ในคืนนั้น Titanic ก็พบกับความหายนะเมื่อ พุ่งเข้าชนภูเขาน้ำแข็ง จนบริเวณใต้ท้องเรือเกิดความเสียหายจนไม่สามารถแก้ไขได้ ความโกลาหลวุ่นวายได้เกิดขึ้น เพราะทุกชีวิตต่างดิ้นรนที่จะเอาตัวรอด ในที่สุดเรือ Titanic ที่ยิ่งใหญ่ และเคยถูกเชื่อว่าไม่มีวันจม ก็ดำดิ่งลงสู่ก้นทะเลลึกพร้อมผู้โดยสารอีกเกือบ 1500 ชีวิต ในขณะที่แจ๊คและโรสกำลังลอยอยู่กลางมหาสมุทรอันหนาวเย็น ท่ามกลางความมืด และความฝันที่กำลังสูญสิ้น

Complete name : [MINI Super-HQ]_Titanic.1997.1080p.DTS.x264.One2loadup.com.mkv
Format : Matroska
Format version : Version 4 / Version 2
File size : 4.35 GiB
Duration : 3 h 14 min
Overall bit rate : 3 197 kb/s
Encoded date : UTC 2010-02-22 21:41:31
Writing application : mkvmerge v5.9.0 (‘On The Loose’) built on Dec 9 2012 15:37:01
Writing library : libebml v1.3.0 + libmatroska v1.4.0

Video
ID : 1
Format : AVC
Format/Info : Advanced Video Codec
Format profile : [email protected]
Format settings : CABAC / 4 Ref Frames
Format settings, CABAC : Yes
Format settings, ReFrames : 4 frames
Codec ID : V_MPEG4/ISO/AVC
Duration : 3 h 14 min
Bit rate : 1 950 kb/s
Width : 1 920 pixels
Height : 816 pixels
Display aspect ratio : 16:9
Original display aspect rat : 16:9
Frame rate mode : Constant
Frame rate : 23.976 (24000/1001) FPS
Color space : YUV
Chroma subsampling : 4:2:0
Bit depth : 8 bits
Scan type : Progressive
Bits/(Pixel*Frame) : 0.052
Stream size : 2.63 GiB (60%)
Title : [MINI Super-HQ]_Titanic.1997.1080p.DTS.x264.One2loadup.com
Writing library : x264 core 128 r2216M 198a7ea
Encoding settings : cabac=1 / ref=4 / deblock=1:0:0 / analyse=0x3:0x133 / me=umh / subme=11 / psy=1 / psy_rd=1.00:0.00 / mixed_ref=1 / me_range=24 / chroma_me=1 / trellis=2 / 8x8dct=1 / cqm=0 / deadzone=21,11 / fast_pskip=0 / chroma_qp_offset=-2 / threads=8 / lookahead_threads=1 / sliced_threads=0 / nr=0 / decimate=1 / interlaced=0 / bluray_compat=0 / constrained_intra=0 / bframes=4 / b_pyramid=2 / b_adapt=2 / b_bias=4 / direct=3 / weightb=1 / open_gop=0 / weightp=2 / keyint=230 / keyint_min=23 / scenecut=40 / intra_refresh=0 / rc_lookahead=60 / rc=2pass / mbtree=1 / bitrate=1950 / ratetol=1.0 / qcomp=0.60 / qpmin=0 / qpmax=69 / qpstep=4 / cplxblur=20.0 / qblur=0.5 / ip_ratio=1.40 / aq=1:1.00
Default : Yes
Forced : No

Audio #1
ID : 2
Format : AC-3
Format/Info : Audio Coding 3
Codec ID : A_AC3
Duration : 3 h 14 min
Bit rate mode : Constant
Bit rate : 448 kb/s
Channel(s) : 6 channels
Channel positions : Front: L C R, Side: L R, LFE
Sampling rate : 48.0 kHz
Frame rate : 31.250 FPS (1536 SPF)
Bit depth : 16 bits
Compression mode : Lossy
Stream size : 624 MiB (14%)
Title : Thai AC3
Service kind : Complete Main
Default : Yes
Forced : No

Audio #2
ID : 3
Format : DTS
Format/Info : Digital Theater Systems
Codec ID : A_DTS
Duration : 3 h 14 min
Bit rate mode : Constant
Bit rate : 755 kb/s
Channel(s) : 6 channels
Channel positions : Front: L C R, Side: L R, LFE
Sampling rate : 48.0 kHz
Frame rate : 93.750 FPS (512 SPF)
Bit depth : 24 bits
Compression mode : Lossy
Stream size : 1.03 GiB (24%)
Title : Eng DTS
Default : No
Forced : No

Text #1
ID : 4
Format : PGS
Codec ID : S_HDMV/PGS
Codec ID/Info : Picture based subtitle format used on BDs/HD-DVDs
Title : Thai PGS
Default : No
Forced : No

Text #2
ID : 5
Format : PGS
Codec ID : S_HDMV/PGS
Codec ID/Info : Picture based subtitle format used on BDs/HD-DVDs
Title : Eng PGS
Default : No
Forced : No

Text #3
ID : 6
Format : VobSub
Codec ID : S_VOBSUB
Codec ID/Info : Picture based subtitle format used on DVDs
Title : Thai 1080 from Blu-ray
Default : No
Forced : No

Text #4
ID : 7
Format : VobSub
Codec ID : S_VOBSUB
Codec ID/Info : Picture based subtitle format used on DVDs
Title : Eng 1080 from Blu-ray
Default : No
Forced : No

DOWNLOAD


PART01 |||| PART02 |||| PART03 |||| PART04 |||| PART05

PART01 |||| PART02 |||| PART03 |||| PART04 |||| PART05

PART01 |||| PART02 |||| PART03 |||| PART04 |||| PART05

PART01 |||| PART02 |||| PART03 |||| PART04 |||| PART05

PART01 |||| PART02 |||| PART03 |||| PART04 |||| PART05


4 Comments
  1. sumlee999
    sumlee999 says

    เสีย

    1. admin
      admin says

      แนะนำแจ้งด้วยลิ้งไหนเสีย จะได้แก้ไขง่ายๆ ฮ๊ะ แก้ไขเรียบร้อยฮ๊ะ

  2. Oat says

    part 2 ถึง 5 เสียครับ รบกวนแก้ไขหน่อย

    1. admin
      admin says

      แก้ไขเรียบร้อยฮ๊ะ

Leave A Reply

อีเมล์ของคุณจะไม่แสดงให้เห็น Your email address will not be published.

%d bloggers like this: