[MINI Super-HQ] The Water Man (2020) เดอะ วอเตอร์แมน [1080p] [พากย์ไทย 5.1 + เสียงอังกฤษ DTS] [บรรยายไทย + อังกฤษ] [เสียงไทย + ซับไทย] [USERLOAD]

0

โหลดหนัง The Water Man (2020) เดอะ วอเตอร์แมน

The Water Man 91min | Adventure, Drama, Family, Fantasy, Mystery, Thriller | May 7, 2021 (United States) Summary: A boy sets out on a quest to save his ill mother by searching for a mythic figure said to have magical healing powers.
Countries: United StatesLanguages: English

เรื่องย่อ The Water Man (2020) เดอะ วอเตอร์แมน

เรื่องราวของชายหนุ่มคนหนึ่งนามว่า กันเนอร์ ผู้ที่หนีออกจากบ้านมาพร้อมกับเครื่องแต่งกายท้องถิ่นเพื่อที่จะปกป้องแม่ที่กำลังป่วยของเขา เขาตั้งใจแน่วแน่ที่จะตามหาคนที่ถูกขนานนามว่า Water Man ผู้ที่เชื่อว่าพลังของเขาสามารถชุบชีวิตขึ้นมาใหม่ได้ให้พบ!!!

Complete name : [MINI Super-HQ]_The.Water.Man.2020.1080p.BrRip.DTS.x264.One2loadup.com.mkv
Format : Matroska
Format version : Version 4
File size : 3.56 GiB
Duration : 1 h 31 min
Overall bit rate : 5 573 kb/s
Movie name : [MINI Super-HQ]_The.Water.Man.2020.1080p.BrRip.DTS.x264.One2loadup.com
Encoded date : UTC 2021-08-18 22:41:11
Writing application : mkvmerge v9.8.0 (‘Kuglblids’) 64bit
Writing library : libebml v1.3.4 + libmatroska v1.4.5
Cover : Yes
Attachments : cover.jpg

Video
ID : 1
Format : AVC
Format/Info : Advanced Video Codec
Format profile : [email protected]
Format settings : CABAC / 5 Ref Frames
Format settings, CABAC : Yes
Format settings, Reference : 5 frames
Codec ID : V_MPEG4/ISO/AVC
Duration : 1 h 31 min
Bit rate : 4 100 kb/s
Width : 1 920 pixels
Height : 804 pixels
Display aspect ratio : 2.40:1
Frame rate mode : Constant
Frame rate : 24.000 FPS
Color space : YUV
Chroma subsampling : 4:2:0
Bit depth : 8 bits
Scan type : Progressive
Bits/(Pixel*Frame) : 0.111
Stream size : 2.62 GiB (74%)
Title : [MINI Super-HQ]_The.Water.Man.2020.1080p.BrRip.DTS.x264.One2loadup.com
Writing library : x264 core 157 r2935 545de2f
Encoding settings : cabac=1 / ref=5 / deblock=1:0:0 / analyse=0x1:0x131 / me=tesa / subme=11 / psy=1 / psy_rd=1.00:0.00 / mixed_ref=1 / me_range=24 / chroma_me=1 / trellis=2 / 8x8dct=0 / cqm=0 / deadzone=21,11 / fast_pskip=0 / chroma_qp_offset=-2 / threads=12 / lookahead_threads=3 / sliced_threads=0 / nr=0 / decimate=1 / interlaced=0 / bluray_compat=0 / constrained_intra=0 / bframes=16 / b_pyramid=2 / b_adapt=2 / b_bias=0 / direct=3 / weightb=1 / open_gop=0 / weightp=2 / keyint=240 / keyint_min=24 / scenecut=40 / intra_refresh=0 / rc_lookahead=60 / rc=2pass / mbtree=1 / bitrate=4100 / ratetol=1.0 / qcomp=0.60 / qpmin=0 / qpmax=69 / qpstep=4 / cplxblur=20.0 / qblur=0.5 / vbv_maxrate=50000 / vbv_bufsize=62500 / nal_hrd=none / filler=0 / ip_ratio=1.40 / aq=1:1.00
Language : English
Default : Yes
Forced : No
Color range : Limited
Color primaries : BT.709
Transfer characteristics : BT.709
Matrix coefficients : BT.709

Audio #1
ID : 2
Format : AC-3
Format/Info : Audio Coding 3
Commercial name : Dolby Digital
Codec ID : A_AC3
Duration : 1 h 31 min
Bit rate mode : Constant
Bit rate : 640 kb/s
Channel(s) : 6 channels
Channel layout : L R C LFE Ls Rs
Sampling rate : 48.0 kHz
Frame rate : 31.250 FPS (1536 SPF)
Compression mode : Lossy
Stream size : 419 MiB (11%)
Title : Thai 5.1 Master
Language : Thai
Service kind : Complete Main
Default : Yes
Forced : Yes

Audio #2
ID : 3
Format : DTS
Format/Info : Digital Theater Systems
Codec ID : A_DTS
Duration : 1 h 31 min
Bit rate mode : Constant
Bit rate : 755 kb/s
Channel(s) : 6 channels
Channel layout : C L R Ls Rs LFE
Sampling rate : 48.0 kHz
Frame rate : 93.750 FPS (512 SPF)
Bit depth : 24 bits
Compression mode : Lossy
Stream size : 493 MiB (14%)
Title : English DTS-5.1
Language : English
Default : No
Forced : No

Text #1
ID : 4
Format : PGS
Codec ID : S_HDMV/PGS
Codec ID/Info : Picture based subtitle format used on BDs/HD-DVDs
Duration : 1 h 31 min
Bit rate : 27.6 kb/s
Count of elements : 1812
Stream size : 18.0 MiB (0%)
Title : Thai 1080p PGS
Language : Thai
Default : Yes
Forced : Yes

Text #2
ID : 5
Format : VobSub
Codec ID : S_VOBSUB
Codec ID/Info : Picture based subtitle format used on DVDs
Duration : 1 h 31 min
Bit rate : 6 480 b/s
Count of elements : 904
Stream size : 4.23 MiB (0%)
Title : Thai 1080p
Language : Thai
Default : No
Forced : No

Text #3
ID : 6
Format : PGS
Codec ID : S_HDMV/PGS
Codec ID/Info : Picture based subtitle format used on BDs/HD-DVDs
Duration : 1 h 31 min
Bit rate : 27.2 kb/s
Count of elements : 1812
Stream size : 17.8 MiB (0%)
Title : Thai 1080p Out PGS
Language : Thai
Default : No
Forced : No

Text #4
ID : 7
Format : VobSub
Codec ID : S_VOBSUB
Codec ID/Info : Picture based subtitle format used on DVDs
Duration : 1 h 31 min
Bit rate : 6 390 b/s
Count of elements : 904
Stream size : 4.18 MiB (0%)
Title : Thai 1080p Out
Language : Thai
Default : No
Forced : No

Text #5
ID : 8
Format : VobSub
Codec ID : S_VOBSUB
Codec ID/Info : Picture based subtitle format used on DVDs
Duration : 1 h 31 min
Bit rate : 8 878 b/s
Count of elements : 904
Stream size : 5.80 MiB (0%)
Title : Thai 1080p Big [Yellow]
Language : Thai
Default : No
Forced : No

Text #6
ID : 9
Format : UTF-8
Codec ID : S_TEXT/UTF8
Codec ID/Info : UTF-8 Plain Text
Duration : 1 h 28 min
Bit rate : 41 b/s
Count of elements : 1000
Stream size : 27.2 KiB (0%)
Title : English SRT
Language : English
Default : No
Forced : No

Text #7
ID : 10
Format : UTF-8
Codec ID : S_TEXT/UTF8
Codec ID/Info : UTF-8 Plain Text
Duration : 1 h 31 min
Bit rate : 46 b/s
Count of elements : 1273
Stream size : 31.1 KiB (0%)
Title : English [SDH]
Language : English
Default : No
Forced : No

Menu
00:00:00.000 : :eng: 01
00:15:02.582 : :eng: 02
00:30:01.415 : :eng: 03
00:45:09.083 : :eng: 04
01:00:26.958 : :eng: 05
01:08:03.625 : :eng: 06
01:15:05.500 : :eng: 07
01:26:20.125 : :eng: 08
01:31:26.207 : :eng: 09

DOWNLOAD


PART01 |||| PART02 |||| PART03 |||| PART04

PART01 |||| PART02 |||| PART03 |||| PART04

PART01 |||| PART02 |||| PART03 |||| PART04

PART01 |||| PART02 |||| PART03 |||| PART04

PART01 |||| PART02 |||| PART03 |||| PART04


Leave A Reply

อีเมล์ของคุณจะไม่แสดงให้เห็น Your email address will not be published.

%d bloggers like this: