[MINI Super-HQ] The Transporter (2002) ขนระห่ำไปบี้นรก ภาค 1 [1080p] [พากย์ไทย 5.1 + เสียงอังกฤษ DTS] [บรรยายไทย + อังกฤษ] [เสียงไทย + ซับไทย] [ONE2UP]

0

The Transporter (2002) ขนระห่ำไปบี้นรก ภาค 1

โหลดหนัง The Transporter (2002) ขนระห่ำไปบี้นรก ภาค 1

The Transporter (2002) 1h 32min | Action, Crime, Thriller | 11 October 2002 (Canada) Summary: Frank is hired to "transport" packages for unknown clients and has made a very good living doing so. But when asked to move a package that begins moving, complications arise.
Countries: France, USALanguages: English, French, Mandarin

เรื่องย่อ The Transporter (2002) ขนระห่ำไปบี้นรก ภาค 1

อดีตเจ้าหน้าที่กองกำลังพิเศษ แฟรงค์ มาร์ติน (เจสัน สแตทแฮม) ใช้ชีวิตเรียบง่ายแถบชายฝั่งเฟรนช์ เมดิเตอเรเนียน โดยมีอาชีพเป็น คนส่งของ รับจ้างถ่ายเทสินค้า – คน และสารพัดสิ่ง – จากที่หนึ่งไปยังอีกที่หนึ่ง โดยไม่เคยตั้งคำถามใด ๆงานขนส่งด้วยรถเมอร์เซเดซดัดแปลงของเขา แม้บางครั้งจะต้องเกี่ยวข้องกับความลึกลับ และเสี่ยงอันตราย แต่แฟรงค์ผู้ยึดคติในการทำงานไว้อย่างเหนียวแน่น ไม่เคยละเมิดกฎที่เขาตั้งไว้ นั่นคือ ข้อที่หนึ่ง : ไม่เปลี่ยนข้อตกลง ข้อที่สอง: ไม่ถามชื่อ – แฟรงค์ไม่ต้องการรู้ว่าเขาทำงานให้ใคร หรือสิ่งที่เขากำลังขนส่งอยู่คืออะไร ข้อที่สาม: ไม่ดูของในหีบห่องานส่งของชิ้นล่าสุดของเขา ดูไม่ต่างไปจากคราวก่อนๆ ที่ผ่านมาแล้วนับไม่ถ้วน เขาถูกว่าจ้างโดยชาวอเมริกัน ซึ่งเป็นที่รู้จักในฉายา วอลล์ สตรีท (ดูกฎข้อที่สอง) เพื่อจัดการส่งของไปยังจุดหมาย แต่เมื่อแฟรงค์หยุดพักระหว่างทาง เขาสังเกตเห็นว่า พัสดุ ขยับเขยื้อนได้ เขาจึงละเมิดกฎข้อที่สาม และพบว่าสิ่งที่อยู่ภายในห่อ คือสาวสวยที่ถูกอุดปากไว้ความพยายามที่จะรักษากฎอีกส องข้อที่เหลือ – ซึ่งเป็นพื้นฐานของการอยู่รอดของแฟรงค์ – ดูจะไร้ผลโดยสิ้นเชิง และกลับนำพาเขาและเพื่อนใหม่ ไปสู่ความลับอันน่าตกใจ ความซับซ้อนเชิงมรณะ และสิ่งสุดท้ายที่เขาไม่เคยคาดคิดว่า ตนจะเชื่อได้ว่า : กฎมีไว้ให้ละเมิด

Complete name : [MINI Super-HQ]_1.The.Transporter.2002.1080p.BrRip.DTS.x264.One2loadup.com.mkv
Format : Matroska
Format version : Version 4
File size : 3.49 GiB
Duration : 1 h 32 min
Overall bit rate : 5 418 kb/s
Movie name : [MINI Super-HQ]_1.The.Transporter.2002.1080p.BrRip.DTS.x264.One2loadup.com
Encoded date : UTC 2018-12-30 12:11:46
Writing application : mkvmerge v29.0.0 (‘Like It Or Not’) 64-bit
Writing library : libebml v1.3.6 + libmatroska v1.4.9

Video
ID : 1
Format : AVC
Format/Info : Advanced Video Codec
Format profile : [email protected]
Format settings : CABAC / 4 Ref Frames
Format settings, CABAC : Yes
Format settings, ReFrames : 4 frames
Codec ID : V_MPEG4/ISO/AVC
Duration : 1 h 32 min
Bit rate : 3 417 kb/s
Width : 1 920 pixels
Height : 818 pixels
Display aspect ratio : 2.35:1
Original display aspect rat : 2.35:1
Frame rate mode : Variable
Frame rate : 23.976 FPS
Color space : YUV
Chroma subsampling : 4:2:0
Bit depth : 8 bits
Scan type : Progressive
Bits/(Pixel*Frame) : 0.091
Stream size : 2.20 GiB (63%)
Title : [MINI Super-HQ]_1.The.Transporter.2002.1080p.BrRip.DTS.x264.One2loadup.com
Writing library : x264 core 142 r2479 dd79a61
Encoding settings : cabac=1 / ref=1 / deblock=1:0:0 / analyse=0x1:0x111 / me=hex / subme=2 / psy=1 / psy_rd=1.00:0.00 / mixed_ref=0 / me_range=16 / chroma_me=1 / trellis=0 / 8x8dct=0 / cqm=0 / deadzone=21,11 / fast_pskip=1 / chroma_qp_offset=0 / threads=6 / lookahead_threads=2 / sliced_threads=0 / nr=0 / decimate=1 / interlaced=0 / bluray_compat=0 / constrained_intra=0 / bframes=3 / b_pyramid=2 / b_adapt=1 / b_bias=0 / direct=1 / weightb=1 / open_gop=0 / weightp=1 / keyint=240 / keyint_min=24 / scenecut=40 / intra_refresh=0 / rc_lookahead=10 / rc=crf / mbtree=1 / crf=23.0 / qcomp=0.60 / qpmin=0 / qpmax=69 / qpstep=4 / vbv_maxrate=20000 / vbv_bufsize=25000 / crf_max=0.0 / nal_hrd=none / filler=0 / ip_ratio=1.40 / aq=1:1.00
Language : English
Default : Yes
Forced : Yes
Color range : Limited
Color primaries : BT.709
Transfer characteristics : BT.709
Matrix coefficients : BT.709

Audio #1
ID : 2
Format : AC-3
Format/Info : Audio Coding 3
Commercial name : Dolby Digital
Codec ID : A_AC3
Duration : 1 h 32 min
Bit rate mode : Constant
Bit rate : 448 kb/s
Channel(s) : 6 channels
Channel layout : L R C LFE Ls Rs
Sampling rate : 48.0 kHz
Frame rate : 31.250 FPS (1536 SPF)
Bit depth : 16 bits
Compression mode : Lossy
Stream size : 295 MiB (8%)
Title : Thai 5.1
Language : Thai
Service kind : Complete Main
Default : Yes
Forced : Yes

Audio #2
ID : 3
Format : DTS
Format/Info : Digital Theater Systems
Codec ID : A_DTS
Duration : 1 h 32 min
Bit rate mode : Constant
Bit rate : 1 509 kb/s
Channel(s) : 6 channels
Channel layout : C L R Ls Rs LFE
Sampling rate : 48.0 kHz
Frame rate : 93.750 FPS (512 SPF)
Bit depth : 24 bits
Compression mode : Lossy
Stream size : 995 MiB (28%)
Title : English DTS
Language : English
Default : No
Forced : No

Text #1
ID : 4
Format : PGS
Muxing mode : zlib
Codec ID : S_HDMV/PGS
Codec ID/Info : Picture based subtitle format used on BDs/HD-DVDs
Duration : 1 h 26 min
Bit rate : 20.0 kb/s
Count of elements : 1284
Stream size : 12.3 MiB (0%)
Title : บรรยายไทย
Language : Thai
Default : Yes
Forced : Yes

Text #2
ID : 5
Format : PGS
Muxing mode : zlib
Codec ID : S_HDMV/PGS
Codec ID/Info : Picture based subtitle format used on BDs/HD-DVDs
Duration : 1 h 26 min
Bit rate : 19.9 kb/s
Count of elements : 1284
Stream size : 12.3 MiB (0%)
Title : บรรยายไทย
Language : Thai
Default : No
Forced : No

Text #3
ID : 6
Format : VobSub
Muxing mode : zlib
Codec ID : S_VOBSUB
Codec ID/Info : Picture based subtitle format used on DVDs
Duration : 1 h 26 min
Bit rate : 4 452 b/s
Count of elements : 642
Stream size : 2.75 MiB (0%)
Title : บรรยายไทย
Language : Thai
Default : No
Forced : No

Text #4
ID : 7
Format : VobSub
Muxing mode : zlib
Codec ID : S_VOBSUB
Codec ID/Info : Picture based subtitle format used on DVDs
Duration : 1 h 26 min
Bit rate : 4 518 b/s
Count of elements : 642
Stream size : 2.79 MiB (0%)
Title : บรรยายไทย
Language : Thai
Default : No
Forced : No

Text #5
ID : 8
Format : VobSub
Muxing mode : zlib
Codec ID : S_VOBSUB
Codec ID/Info : Picture based subtitle format used on DVDs
Duration : 1 h 26 min
Bit rate : 4 534 b/s
Count of elements : 642
Stream size : 2.80 MiB (0%)
Title : บรรยายไทย
Language : Thai
Default : No
Forced : No

Text #6
ID : 9
Format : PGS
Muxing mode : zlib
Codec ID : S_HDMV/PGS
Codec ID/Info : Picture based subtitle format used on BDs/HD-DVDs
Duration : 1 h 26 min
Bit rate : 29.5 kb/s
Count of elements : 1766
Stream size : 18.2 MiB (1%)
Title : บรรยายอังกฤษ
Language : English
Default : No
Forced : No

Text #7
ID : 10
Format : VobSub
Muxing mode : zlib
Codec ID : S_VOBSUB
Codec ID/Info : Picture based subtitle format used on DVDs
Duration : 1 h 26 min
Bit rate : 6 558 b/s
Count of elements : 883
Stream size : 4.04 MiB (0%)
Title : บรรยายอังกฤษ
Language : English
Default : No
Forced : No

Menu
00:00:00.000 : :Chapter 1
00:02:57.921 : :Chapter 2
00:04:56.873 : :Chapter 3
00:07:40.120 : :Chapter 4
00:10:49.267 : :Chapter 5
00:14:34.534 : :Chapter 6
00:16:05.458 : :Chapter 7
00:20:18.085 : :Chapter 8
00:24:05.771 : :Chapter 9
00:27:21.759 : :Chapter 10
00:28:31.203 : :Chapter 11
00:31:18.078 : :Chapter 12
00:32:40.952 : :Chapter 13
00:38:32.095 : :Chapter 14
00:40:07.899 : :Chapter 15
00:44:16.314 : :Chapter 16
00:49:11.734 : :Chapter 17
00:51:05.848 : :Chapter 18
00:53:49.345 : :Chapter 19
00:56:34.718 : :Chapter 20
01:01:29.179 : :Chapter 21
01:04:01.831 : :Chapter 22
01:05:40.472 : :Chapter 23
01:08:00.403 : :Chapter 24
01:09:23.027 : :Chapter 25
01:12:34.844 : :Chapter 26
01:16:22.697 : :Chapter 27
01:17:59.835 : :Chapter 28
01:19:19.415 : :Chapter 29
01:22:41.116 : :Chapter 30
01:23:27.746 : :Chapter 31
01:27:22.105 : :Chapter 32

DOWNLOAD


PART01 |||| PART02 |||| PART03 |||| PART04

PART01 |||| PART02 |||| PART03 |||| PART04

PART01 |||| PART02 |||| PART03 |||| PART04

PART01 |||| PART02 |||| PART03 |||| PART04


Leave A Reply

Your email address will not be published.

%d bloggers like this: