[MINI Super-HQ] The Thomas Crown Affair (1999) เกมรักหักเหลี่ยมจารกรรม [1080p] [พากย์ไทย 2.0 + เสียงอังกฤษ DTS] [บรรยายไทย + อังกฤษ] [เสียงไทย + ซับไทย] [OPENLOAD]

0

The Thomas Crown Affair (1999) เกมรักหักเหลี่ยมจารกรรม

โหลดหนัง The Thomas Crown Affair (1999) เกมรักหักเหลี่ยมจารกรรม

The Thomas Crown Affair (1999) 1h 53min | Crime, Romance, Thriller | 19 August 1999 (Netherlands) Summary: A very rich and successful playboy amuses himself by stealing artwork, but may have met his match in a seductive detective.
Countries: USALanguages: English, German, Polish, French

เรื่องย่อ The Thomas Crown Affair (1999) เกมรักหักเหลี่ยมจารกรรม

เมื่อชีวิตมหาเศรษฐีหนุ่ม โทมัส คราวน์ ผู้ที่สร้างตัวเองจนรวยมหาศาล เขาสามารถซื้อทุกอย่างที่ต้องการและสร้างความหวั่นไหวกับผู้หญิง ชีวิตที่ไร้เรื่องตื่นเต้นก็เป็นความน่าเบื่อสำหรับเขา โทมัสจึงสร้างสีสันและรสชาติให้กับชีวิตของตนเองด้วยงานอดิเรกท้ากฎหมาย คือ จารกรรมงานศิลป์เพื่อการสะสม แล้ววาดภาพของโมเน่ห์ จิตรกรระดับโลกหายไปอย่างลึกลับจากพิพิธภัณฑ์ดูเหมือนว่าโทมัสจะเป็นผู้ต้องสงสัยรายสุดท้ายที่ตำรวจสงสัย ยกเว้นแต่นักสืบสาวผู้ฉลาดหลักแหลมที่ชื่อ แคทเธอลีน เบนนิ่งที่สงสัยในพฤติกรรมของเขา และไม่รีรอที่จะประชิดตัวเพื่อหาหลักฐานจับขโมยเศรษฐีรายนี้ แต่สิ่งที่ท้าทายกว่าการค้นหาหลักฐานสำหรับแคทเธอลีนคือ ทำอย่างไรที่เธอจะไม่หลงเสน่ห์ของผู้สงสัยรายนี้!!!

Complete name : [MINI Super-HQ]_The.Thomas.Crown.Affair.1999.1080p.BluRay.DTS.x264.One2loadup.com.mkv
Format : Matroska
Format version : Version 4
File size : 6.67 GiB
Duration : 1 h 53 min
Overall bit rate : 8 427 kb/s
Movie name : [MINI Super-HQ]_The.Thomas.Crown.Affair.1999.1080p.BluRay.DTS.x264.One2loadup.com
Encoded date : UTC 2010-02-22 21:41:31
Writing application : mkvmerge v5.9.0 (‘On The Loose’) built on Dec 9 2012 15:37:01
Writing library : libebml v1.3.0 + libmatroska v1.4.0

Video
ID : 1
Format : AVC
Format/Info : Advanced Video Codec
Format profile : [email protected]
Format settings : CABAC / 5 Ref Frames
Format settings, CABAC : Yes
Format settings, ReFrames : 5 frames
Codec ID : V_MPEG4/ISO/AVC
Duration : 1 h 53 min
Bit rate : 7 404 kb/s
Width : 1 920 pixels
Height : 812 pixels
Display aspect ratio : 2.35:1
Frame rate mode : Constant
Frame rate : 23.976 (24000/1001) FPS
Color space : YUV
Chroma subsampling : 4:2:0
Bit depth : 8 bits
Scan type : Progressive
Bits/(Pixel*Frame) : 0.198
Stream size : 5.76 GiB (86%)
Title : [MINI Super-HQ]_The.Thomas.Crown.Affair.1999.1080p.BluRay.DTS.x264.One2loadup.com
Writing library : x264 core 138 r2358 9e941d1
Encoding settings : cabac=1 / ref=5 / deblock=1:-3:-3 / analyse=0x3:0x133 / me=umh / subme=11 / psy=1 / psy_rd=1.00:0.10 / mixed_ref=1 / me_range=32 / chroma_me=1 / trellis=2 / 8x8dct=1 / cqm=0 / deadzone=21,11 / fast_pskip=0 / chroma_qp_offset=-3 / threads=6 / lookahead_threads=1 / sliced_threads=0 / nr=0 / decimate=0 / interlaced=0 / bluray_compat=0 / constrained_intra=0 / bframes=5 / b_pyramid=2 / b_adapt=2 / b_bias=0 / direct=3 / weightb=1 / open_gop=0 / weightp=2 / keyint=230 / keyint_min=22 / scenecut=40 / intra_refresh=0 / rc=2pass / mbtree=0 / bitrate=7404 / ratetol=1.0 / qcomp=0.60 / qpmin=0 / qpmax=69 / qpstep=4 / cplxblur=20.0 / qblur=0.5 / ip_ratio=1.40 / pb_ratio=1.30 / aq=1:1.00
Language : English
Default : Yes
Forced : No

Audio #1
ID : 2
Format : DTS
Format/Info : Digital Theater Systems
Codec ID : A_DTS
Duration : 1 h 53 min
Bit rate mode : Constant
Bit rate : 755 kb/s
Channel(s) : 6 channels
Channel layout : C L R Ls Rs LFE
Sampling rate : 48.0 kHz
Frame rate : 93.750 FPS (512 SPF)
Bit depth : 24 bits
Compression mode : Lossy
Stream size : 611 MiB (9%)
Language : English
Default : Yes
Forced : Yes

Audio #2
ID : 3
Format : AC-3
Format/Info : Audio Coding 3
Commercial name : Dolby Digital
Codec ID : A_AC3
Duration : 1 h 53 min
Bit rate mode : Constant
Bit rate : 224 kb/s
Channel(s) : 2 channels
Channel layout : L R
Sampling rate : 48.0 kHz
Frame rate : 31.250 FPS (1536 SPF)
Bit depth : 16 bits
Compression mode : Lossy
Stream size : 182 MiB (3%)
Language : Thai
Service kind : Complete Main
Default : No
Forced : No

Text #1
ID : 4
Format : VobSub
Codec ID : S_VOBSUB
Codec ID/Info : Picture based subtitle format used on DVDs
Language : Thai
Default : Yes
Forced : Yes

Text #2
ID : 5
Format : VobSub
Codec ID : S_VOBSUB
Codec ID/Info : Picture based subtitle format used on DVDs
Language : Thai
Default : No
Forced : No

Text #3
ID : 6
Format : PGS
Codec ID : S_HDMV/PGS
Codec ID/Info : Picture based subtitle format used on BDs/HD-DVDs
Language : Thai
Default : No
Forced : No

Text #4
ID : 7
Format : UTF-8
Codec ID : S_TEXT/UTF8
Codec ID/Info : UTF-8 Plain Text
Language : English
Default : No
Forced : No

Menu
00:00:00.000 : :(English)
00:04:43.116 : :(English)
00:08:50.112 : :(English)
00:10:42.850 : :(English)
00:18:41.745 : :(English)
00:27:00.744 : :(English)
00:33:09.487 : :(English)
00:38:41.902 : :(English)
00:44:29.958 : :(English)
00:49:51.488 : :(English)
00:55:47.093 : :(English)
01:04:54.432 : :(English)
01:10:20.424 : :(English)
01:15:39.576 : :(English)
01:22:20.769 : :(English)
01:28:21.754 : :(English)
01:32:35.841 : :(English)
01:38:21.687 : :(English)
01:43:19.234 : :(English)
01:47:45.500 : :(English)

DOWNLOAD


PART01 |||| PART02 |||| PART03 |||| PART04 |||| PART05 |||| PART06 |||| PART07

PART01 |||| PART02 |||| PART03 |||| PART04 |||| PART05 |||| PART06 |||| PART07

PART01 |||| PART02 |||| PART03 |||| PART04 |||| PART05 |||| PART06 |||| PART07

PART01 |||| PART02 |||| PART03 |||| PART04 |||| PART05 |||| PART06 |||| PART07


Leave A Reply

Your email address will not be published.