[MINI Super-HQ] The Takeover (2022) เดอะ เทคโอเวอร์ [1080p] [NETFLIX] [พากย์ไทย 5.1 + เสียงดัตช์ 5.1] [บรรยายไทย + อังกฤษ] [เสียงไทย + ซับไทย] [DOSYAUPLOAD]

0

โหลดหนัง The Takeover (2022) เดอะ เทคโอเวอร์

The Takeover | November 1, 2022 (United States) Summary: Framed for murder after uncovering a privacy scandal, an ethical hacker must evade the police while trying to track down the criminals blackmailing her.
Countries: NetherlandsLanguages: Dutch

เรื่องย่อ The Takeover (2022) เดอะ เทคโอเวอร์

เมื่อโดนใส่ร้ายว่าเป็นคนก่อเหตุฆาตกรรมหลังเปิดโปงข่าวฉาว แฮ็กเกอร์ผู้ยึดมั่นศีลธรรมจึงต้องหาทางหลบหนีจากตำรวจ พร้อมตามล่าตัวอาชญากรที่แบล็กเมลข่มขู่เธอ

Complete name : [MINI Super-HQ]_The.Takeover.2022.1080p.NF.APP-DL.EAC3.x264.One2loadup.com.mkv
Format : Matroska
Format version : Version 4
File size : 4.49 GiB
Duration : 1 h 28 min
Overall bit rate mode : Variable
Overall bit rate : 7 266 kb/s
Movie name : [MINI Super-HQ]_The.Takeover.2022.1080p.NF.APP-DL.EAC3.x264.One2loadup.com
Encoded date : UTC 2022-11-05 05:37:27
Writing application : mkvmerge v67.0.0 (‘Under Stars’) 64-bit
Writing library : libebml v1.4.2 + libmatroska v1.6.4

Video
ID : 1
Format : AVC
Format/Info : Advanced Video Codec
Format profile : [email protected]
Format settings : CABAC / 4 Ref Frames
Format settings, CABAC : Yes
Format settings, Reference : 4 frames
Codec ID : V_MPEG4/ISO/AVC
Duration : 1 h 28 min
Bit rate mode : Variable
Bit rate : 5 287 kb/s
Maximum bit rate : 20.0 Mb/s
Width : 1 920 pixels
Height : 1 080 pixels
Display aspect ratio : 16:9
Frame rate mode : Constant
Frame rate : 25.000 FPS
Color space : YUV
Chroma subsampling : 4:2:0
Bit depth : 8 bits
Scan type : Progressive
Bits/(Pixel*Frame) : 0.102
Stream size : 3.27 GiB (73%)
Title : [MINI Super-HQ]_The.Takeover.2022.1080p.NF.APP-DL.EAC3.x264.One2loadup.com
Writing library : x264 core 148 r2727 7d026e8
Encoding settings : cabac=1 / ref=4 / deblock=1:0:0 / analyse=0x3:0x111 / me=umh / subme=10 / psy=1 / psy_rd=1.00:0.00 / mixed_ref=1 / me_range=120 / chroma_me=1 / trellis=2 / 8x8dct=1 / cqm=0 / deadzone=21,11 / fast_pskip=1 / chroma_qp_offset=-2 / threads=8 / lookahead_threads=2 / sliced_threads=0 / nr=0 / decimate=1 / interlaced=0 / bluray_compat=0 / stitchable=1 / constrained_intra=0 / bframes=16 / b_pyramid=2 / b_adapt=2 / b_bias=0 / direct=3 / weightb=1 / open_gop=0 / weightp=2 / keyint=250 / keyint_min=126 / scenecut=0 / intra_refresh=0 / rc_lookahead=250 / rc=crf / mbtree=1 / crf=23.0 / qcomp=0.50 / qpmin=6 / qpmax=51 / qpstep=4 / vbv_maxrate=20000 / vbv_bufsize=25000 / crf_max=0.0 / nal_hrd=vbr / filler=0 / ip_ratio=1.40 / aq=1:0.80
Language : Dutch
Default : Yes
Forced : No

Audio #1
ID : 2
Format : E-AC-3
Format/Info : Enhanced AC-3
Commercial name : Dolby Digital Plus
Codec ID : A_EAC3
Duration : 1 h 28 min
Bit rate mode : Constant
Bit rate : 640 kb/s
Channel(s) : 6 channels
Channel layout : L R C LFE Ls Rs
Sampling rate : 48.0 kHz
Frame rate : 31.250 FPS (1536 SPF)
Compression mode : Lossy
Stream size : 405 MiB (9%)
Title : Thai-DDP 5.1
Language : Thai
Service kind : Complete Main
Default : Yes
Forced : Yes

Audio #2
ID : 3
Format : E-AC-3
Format/Info : Enhanced AC-3
Commercial name : Dolby Digital Plus
Codec ID : A_EAC3
Duration : 1 h 28 min
Bit rate mode : Constant
Bit rate : 640 kb/s
Channel(s) : 6 channels
Channel layout : L R C LFE Ls Rs
Sampling rate : 48.0 kHz
Frame rate : 31.250 FPS (1536 SPF)
Compression mode : Lossy
Stream size : 405 MiB (9%)
Title : Dutch-DDP 5.1
Language : Dutch
Service kind : Complete Main
Default : No
Forced : No

Audio #3
ID : 4
Format : E-AC-3
Format/Info : Enhanced AC-3
Commercial name : Dolby Digital Plus
Codec ID : A_EAC3
Duration : 1 h 28 min
Bit rate mode : Constant
Bit rate : 640 kb/s
Channel(s) : 6 channels
Channel layout : L R C LFE Ls Rs
Sampling rate : 48.0 kHz
Frame rate : 31.250 FPS (1536 SPF)
Compression mode : Lossy
Stream size : 405 MiB (9%)
Title : English-DDP 5.1
Language : English
Service kind : Complete Main
Default : No
Forced : No

Text #1
ID : 5
Format : PGS
Muxing mode : zlib
Codec ID : S_HDMV/PGS
Codec ID/Info : Picture based subtitle format used on BDs/HD-DVDs
Duration : 1 h 21 min
Bit rate : 2 483 b/s
Count of elements : 108
Stream size : 1.45 MiB (0%)
Title : Thai-FORCED PGS From Original NETFLIX
Language : Thai
Default : Yes
Forced : Yes

Text #2
ID : 6
Format : VobSub
Muxing mode : zlib
Codec ID : S_VOBSUB
Codec ID/Info : Picture based subtitle format used on DVDs
Duration : 1 h 21 min
Bit rate : 488 b/s
Count of elements : 54
Stream size : 292 KiB (0%)
Title : Thai-FORCED VOBSUB From Original NETFLIX
Language : Thai
Default : Yes
Forced : No

Text #3
ID : 7
Format : PGS
Muxing mode : zlib
Codec ID : S_HDMV/PGS
Codec ID/Info : Picture based subtitle format used on BDs/HD-DVDs
Duration : 1 h 26 min
Bit rate : 33.0 kb/s
Count of elements : 2368
Stream size : 20.5 MiB (0%)
Title : Thai-PGS NETFLIX [Angsana]
Language : Thai
Default : Yes
Forced : No

Text #4
ID : 8
Format : PGS
Muxing mode : zlib
Codec ID : S_HDMV/PGS
Codec ID/Info : Picture based subtitle format used on BDs/HD-DVDs
Duration : 1 h 26 min
Bit rate : 47.1 kb/s
Count of elements : 2368
Stream size : 29.2 MiB (1%)
Title : Thai-PGS From Original NETFLIX
Language : Thai
Default : Yes
Forced : No

Text #5
ID : 9
Format : VobSub
Muxing mode : zlib
Codec ID : S_VOBSUB
Codec ID/Info : Picture based subtitle format used on DVDs
Duration : 1 h 26 min
Bit rate : 8 011 b/s
Count of elements : 1184
Stream size : 4.97 MiB (0%)
Title : Thai-VOBSUB NETFLIX [Angsana]
Language : Thai
Default : Yes
Forced : No

Text #6
ID : 10
Format : VobSub
Muxing mode : zlib
Codec ID : S_VOBSUB
Codec ID/Info : Picture based subtitle format used on DVDs
Duration : 1 h 26 min
Bit rate : 9 187 b/s
Count of elements : 1184
Stream size : 5.70 MiB (0%)
Title : Thai-VOBSUB From Original NETFLIX
Language : Thai
Default : Yes
Forced : No

Text #7
ID : 11
Format : UTF-8
Codec ID : S_TEXT/UTF8
Codec ID/Info : UTF-8 Plain Text
Duration : 1 h 21 min
Bit rate : 5 b/s
Count of elements : 54
Stream size : 3.23 KiB (0%)
Title : Thai-FORCED SRT
Language : Thai
Default : Yes
Forced : No

Text #8
ID : 12
Format : UTF-8
Codec ID : S_TEXT/UTF8
Codec ID/Info : UTF-8 Plain Text
Duration : 1 h 26 min
Bit rate : 111 b/s
Count of elements : 1184
Stream size : 71.0 KiB (0%)
Title : Thai-SRT
Language : Thai
Default : Yes
Forced : No

Text #9
ID : 13
Format : UTF-8
Codec ID : S_TEXT/UTF8
Codec ID/Info : UTF-8 Plain Text
Duration : 1 h 26 min
Bit rate : 36 b/s
Count of elements : 794
Stream size : 23.4 KiB (0%)
Title : English-SRT [CC]
Language : English
Default : Yes
Forced : No

Text #10
ID : 14
Format : UTF-8
Codec ID : S_TEXT/UTF8
Codec ID/Info : UTF-8 Plain Text
Duration : 1 h 23 min
Bit rate : 53 b/s
Count of elements : 1075
Stream size : 32.8 KiB (0%)
Title : English-SRT
Language : English
Default : Yes
Forced : No

DOWNLOAD


PART01 |||| PART02 |||| PART03 |||| PART04 |||| PART05

PART01 |||| PART02 |||| PART03 |||| PART04 |||| PART05

PART01 |||| PART02 |||| PART03 |||| PART04 |||| PART05

PART01 |||| PART02 |||| PART03 |||| PART04 |||| PART05

PART01 |||| PART02 |||| PART03 |||| PART04 |||| PART05


Leave A Reply

อีเมล์ของคุณจะไม่แสดงให้เห็น Your email address will not be published.

%d bloggers like this: