[MINI Super-HQ] The Stepfather (2009) พ่อเลี้ยงโหดโครตอำมหิต [Unrated] [1080p] [พากย์ไทย 2.0 + เสียงอังกฤษ 5.1] [บรรยายไทย + อังกฤษ] [เสียงไทย + ซับไทย] [PANDAFILE]

0

โหลดหนัง The Stepfather (2009) พ่อเลี้ยงโหดโครตอำมหิต

The Stepfather | October 16, 2009 (United States) Summary: Michael Harding (Penn Badgely) returns home from military school to find his mother Susan (Sela Ward) happily in love and living with her new boyfriend David (Dylan Walsh). As the two men ge... Read all
Countries: United StatesLanguages: English, German

เรื่องย่อ The Stepfather (2009) พ่อเลี้ยงโหดโครตอำมหิต

หนังระทึกขวัญเรื่องเยี่ยมในที่นี้เราจะพูดถึงครอบครัวหนึ่งซึ่งประกอบไปด้วยแม่หม้ายและลูกๆอีกสามคน พวกเขากำลังจะได้พบพ่อใหม่ในฝันที่ดีแสนดี เป็นผู้ชายในฝันของแม่ทันทีเขาก้าวเข้ามาในบ้านทุกอย่างดูเหมือนจะเพอเฟคไปซะหมดหากแต่ว่าไม่นาน เรื่องราวต่างๆก็เริ่มรุนแรงขึ้น เมื่อพ่อเลี้ยงใหม่แสนดีของพวกเขาไม่ใช่คนดีจริงๆ หากแต่เป็นฆาตกรโรคจิตที่กำลังตามหาครอบครัวในฝันของตัวเองอยู่ แต่หากมันผิดหวังไม่ถูกใจครอบครัวไหนมันก็จะฆ่ายกครัวและย้ายไปหาครอบครัวใหม่ไปเรื่อยๆ คราวนี้เคราะห์เวียนมาถึงครอบครัวแม่หม้ายลูกสามซึ่งไม่รู้เลยว่าพ่อใหม่ของพวกเขานั้นแท้จริงแล้วโหดเหี้ยมอำมหิตแค่ไหน!!!

Complete name : [MINI Super-HQ]_The.Stepfather.2009.Unrated.1080p.BDRip.AC3.x264.One2loadup.com.mkv
Format : Matroska
Format version : Version 4
File size : 3.25 GiB
Duration : 1 h 42 min
Overall bit rate : 4 557 kb/s
Movie name : [MINI Super-HQ]_The.Stepfather.2009.Unrated.1080p.BDRip.AC3.x264.One2loadup.com
Encoded date : UTC 2017-04-16 05:40:12
Writing application : mkvmerge v10.0.0 (‘To Drown In You’) 64bit
Writing library : libebml v1.3.4 + libmatroska v1.4.5

Video
ID : 1
Format : AVC
Format/Info : Advanced Video Codec
Format profile : [email protected]
Format settings : CABAC / 4 Ref Frames
Format settings, CABAC : Yes
Format settings, ReFrames : 4 frames
Codec ID : V_MPEG4/ISO/AVC
Duration : 1 h 42 min
Bit rate : 3 800 kb/s
Width : 1 920 pixels
Height : 800 pixels
Display aspect ratio : 2.40:1
Frame rate mode : Constant
Frame rate : 23.976 (24000/1001) FPS
Color space : YUV
Chroma subsampling : 4:2:0
Bit depth : 8 bits
Scan type : Progressive
Bits/(Pixel*Frame) : 0.103
Stream size : 2.71 GiB (83%)
Title : [MINI Super-HQ]_The.Stepfather.2009.Unrated.1080p.BDRip.AC3.x264.One2loadup.com
Writing library : x264 core 142 r2409 d6b4e63
Encoding settings : cabac=1 / ref=4 / deblock=1:-3:-3 / analyse=0x3:0x133 / me=umh / subme=11 / psy=1 / psy_rd=1.00:0.00 / mixed_ref=1 / me_range=32 / chroma_me=1 / trellis=2 / 8x8dct=1 / cqm=0 / deadzone=21,11 / fast_pskip=1 / chroma_qp_offset=-2 / threads=6 / lookahead_threads=1 / sliced_threads=0 / nr=0 / decimate=1 / interlaced=0 / bluray_compat=0 / constrained_intra=0 / bframes=6 / b_pyramid=2 / b_adapt=1 / b_bias=0 / direct=1 / weightb=1 / open_gop=0 / weightp=2 / keyint=240 / keyint_min=24 / scenecut=40 / intra_refresh=0 / rc_lookahead=40 / rc=2pass / mbtree=1 / bitrate=3800 / ratetol=1.0 / qcomp=0.60 / qpmin=0 / qpmax=69 / qpstep=4 / cplxblur=20.0 / qblur=0.5 / vbv_maxrate=20000 / vbv_bufsize=25000 / nal_hrd=none / filler=0 / ip_ratio=1.40 / aq=1:1.00
Language : English
Default : Yes
Forced : Yes

Audio #1
ID : 2
Format : AC-3
Format/Info : Audio Coding 3
Commercial name : Dolby Digital
Codec ID : A_AC3
Duration : 1 h 42 min
Bit rate mode : Constant
Bit rate : 224 kb/s
Channel(s) : 2 channels
Channel layout : L R
Sampling rate : 48.0 kHz
Frame rate : 31.250 FPS (1536 SPF)
Bit depth : 16 bits
Compression mode : Lossy
Stream size : 164 MiB (5%)
Language : Thai
Service kind : Complete Main
Default : Yes
Forced : Yes

Audio #2
ID : 3
Format : AC-3
Format/Info : Audio Coding 3
Commercial name : Dolby Digital
Codec ID : A_AC3
Duration : 1 h 42 min
Bit rate mode : Constant
Bit rate : 448 kb/s
Channel(s) : 6 channels
Channel layout : L R C LFE Ls Rs
Sampling rate : 48.0 kHz
Frame rate : 31.250 FPS (1536 SPF)
Bit depth : 16 bits
Compression mode : Lossy
Stream size : 327 MiB (10%)
Language : English
Service kind : Complete Main
Default : No
Forced : No

Text #1
ID : 4
Format : VobSub
Muxing mode : zlib
Codec ID : S_VOBSUB
Codec ID/Info : Picture based subtitle format used on DVDs
Duration : 1 h 37 min
Bit rate : 1 971 b/s
Count of elements : 1095
Stream size : 1.37 MiB (0%)
Title : TH 480op DVD Master
Language : Thai
Default : No
Forced : No

Text #2
ID : 5
Format : VobSub
Muxing mode : zlib
Codec ID : S_VOBSUB
Codec ID/Info : Picture based subtitle format used on DVDs
Duration : 1 h 37 min
Bit rate : 4 337 b/s
Count of elements : 1096
Stream size : 3.04 MiB (0%)
Title : TH 720p Angsana
Language : Thai
Default : No
Forced : No

Text #3
ID : 6
Format : VobSub
Muxing mode : zlib
Codec ID : S_VOBSUB
Codec ID/Info : Picture based subtitle format used on DVDs
Duration : 1 h 37 min
Bit rate : 7 249 b/s
Count of elements : 1096
Stream size : 5.07 MiB (0%)
Title : TH 1080p Angsana
Language : Thai
Default : Yes
Forced : Yes

Text #4
ID : 7
Format : VobSub
Muxing mode : zlib
Codec ID : S_VOBSUB
Codec ID/Info : Picture based subtitle format used on DVDs
Duration : 1 h 37 min
Bit rate : 7 241 b/s
Count of elements : 1096
Stream size : 5.07 MiB (0%)
Title : TH 1080p Angsana Yellow
Language : Thai
Default : No
Forced : No

Text #5
ID : 8
Format : VobSub
Muxing mode : zlib
Codec ID : S_VOBSUB
Codec ID/Info : Picture based subtitle format used on DVDs
Duration : 1 h 37 min
Bit rate : 6 095 b/s
Count of elements : 1096
Stream size : 4.27 MiB (0%)
Title : TH 1080p Tahoma
Language : Thai
Default : No
Forced : No

Text #6
ID : 9
Format : PGS
Muxing mode : zlib
Codec ID : S_HDMV/PGS
Codec ID/Info : Picture based subtitle format used on BDs/HD-DVDs
Duration : 1 h 37 min
Bit rate : 19.2 kb/s
Count of elements : 2192
Stream size : 13.4 MiB (0%)
Title : TH PGS Angsana
Language : Thai
Default : No
Forced : No

Text #7
ID : 10
Format : PGS
Muxing mode : zlib
Codec ID : S_HDMV/PGS
Codec ID/Info : Picture based subtitle format used on BDs/HD-DVDs
Duration : 1 h 37 min
Bit rate : 21.4 kb/s
Count of elements : 2192
Stream size : 15.0 MiB (0%)
Title : TH PGA Tahoma
Language : Thai
Default : No
Forced : No

Text #8
ID : 11
Format : PGS
Muxing mode : zlib
Codec ID : S_HDMV/PGS
Codec ID/Info : Picture based subtitle format used on BDs/HD-DVDs
Duration : 1 h 37 min
Bit rate : 19.2 kb/s
Count of elements : 2192
Stream size : 13.4 MiB (0%)
Title : TH PGS Angsana Out
Default : No
Forced : No

Text #9
ID : 12
Format : UTF-8
Codec ID : S_TEXT/UTF8
Codec ID/Info : UTF-8 Plain Text
Duration : 1 h 32 min
Bit rate : 63 b/s
Count of elements : 1080
Stream size : 43.0 KiB (0%)
Title : EN SRT
Language : English
Default : No
Forced : No

Menu
00:00:00.000 : en:CHAPTER01
00:05:07.307 : en:CHAPTER02
00:13:11.999 : en:CHAPTER03
00:18:43.664 : en:CHAPTER04
00:24:20.834 : en:CHAPTER05
00:29:01.573 : en:CHAPTER06
00:37:09.852 : en:CHAPTER07
00:43:11.005 : en:CHAPTER08
00:47:03.195 : en:CHAPTER09
00:54:37.691 : en:CHAPTER10
01:01:23.805 : en:CHAPTER11
01:07:27.501 : en:CHAPTER12
01:12:24.506 : en:CHAPTER13
01:16:19.283 : en:CHAPTER14
01:22:45.752 : en:CHAPTER15
01:30:20.248 : en:CHAPTER16

DOWNLOAD


PART01 |||| PART02 |||| PART03 |||| PART04

PART01 |||| PART02 |||| PART03 |||| PART04

PART01 |||| PART02 |||| PART03 |||| PART04

PART01 |||| PART02 |||| PART03 |||| PART04

PART01 |||| PART02 |||| PART03 |||| PART04


Leave A Reply

อีเมล์ของคุณจะไม่แสดงให้เห็น Your email address will not be published.

%d bloggers like this: