[MINI Super-HQ] The Social Network (2010) เดอะโซเชียลเน็ตเวิร์ก [1080p] [พากย์ไทย 5.1 + เสียงอังกฤษ DTS] [บรรยายไทย + อังกฤษ] [เสียงไทย + ซับไทย] [PANDAFILE]

2

The Social Network (2010)

โหลดหนัง The Social Network (2010) เดอะโซเชียลเน็ตเวิร์ก 

The Social Network | October 1, 2010 (United States) Summary: As Harvard student Mark Zuckerberg creates the social networking site that would become known as Facebook, he is sued by the twins who claimed he stole their idea, and by the co-founder who ... Read all
Countries: United StatesLanguages: English, French

เรื่องย่อ The Social Network (2010) เดอะโซเชียลเน็ตเวิร์ก

เดอะ โซเชี่ยล เน็ตเวิร์ก ผลงานชั้นยอดของผู้กำกับเดวิด ฟินเชอร์ พร้อมความเฉียบคมของบทภาพยนตร์โดยแอรอน ซอร์กิน และทีมนักแสดงมือฉมัง อาทิ เจสซี่ ไอเซ็นเบิร์ก, แอนดรูว์ การ์ฟิลด์ และจัสติน ทิมเบอร์เลค ในเรื่องราวอันน่าติดตามของหนุ่มเนิร์ดอัจฉริยะผู้ปฏิวัติโฉมหน้าการสื่อสาร ของผู้คนทั้งโลกภาพยนตร์กระแทกความรู้สึกที่ผสานเข้ากับอารมณ์ขันได้อย่างไม่น่าเชื่อ เรื่องราวความเป็นมาของสุดยอดเว็บไซต์ facebook การต่อสู้เพื่อชิงความเป็นเจ้าของและความสำเร็จที่สูงจนไม่สามารถประเมินได้ สุดยอดไอเดียที่เชื่อมคนทั้งโลกให้เป็นเพื่อนกันแม้ว่ามัจะทำลายมิตรภาพของ ผู้ก่อตั้งมันขึ้นมาเองก็ตาม

Complete name : [MINI Super-HQ]_The.Social.Network.2010.1080p.DTS.BrRip.x264.One2loadup.com.mkv
Format : Matroska
Format version : Version 2
File size : 3.88 GiB
Duration : 2 h 0 min
Overall bit rate : 4 608 kb/s
Movie name : [MINI Super-HQ]_The.Social.Network.2010.1080p.DTS.BrRip.x264.One2loadup.com
Encoded date : UTC 2016-02-20 19:47:04
Writing application : mkvmerge v5.0.1 (‘Es ist Sommer’) built on Oct 9 2011 11:55:43
Writing library : libebml v1.2.2 + libmatroska v1.3.0

Video
ID : 1
Format : AVC
Format/Info : Advanced Video Codec
Format profile : [email protected]
Format settings : CABAC / 5 Ref Frames
Format settings, CABAC : Yes
Format settings, ReFrames : 5 frames
Muxing mode : Header stripping
Codec ID : V_MPEG4/ISO/AVC
Duration : 2 h 0 min
Bit rate : 3 145 kb/s
Width : 1 920 pixels
Height : 800 pixels
Display aspect ratio : 2.40:1
Frame rate mode : Constant
Frame rate : 23.976 FPS
Color space : YUV
Chroma subsampling : 4:2:0
Bit depth : 8 bits
Scan type : Progressive
Bits/(Pixel*Frame) : 0.085
Stream size : 2.63 GiB (68%)
Title : [MINI Super-HQ]_The.Social.Network.2010.1080p.DTS.BrRip.x264.One2loadup.com
Writing library : x264 core 144 r2525 40bb568
Encoding settings : cabac=1 / ref=5 / deblock=1:1:1 / analyse=0x3:0x113 / me=umh / subme=10 / psy=1 / psy_rd=1.00:0.00 / mixed_ref=1 / me_range=24 / chroma_me=1 / trellis=2 / 8x8dct=1 / cqm=0 / deadzone=21,11 / fast_pskip=1 / chroma_qp_offset=-4 / threads=6 / lookahead_threads=1 / sliced_threads=0 / nr=0 / decimate=1 / interlaced=0 / bluray_compat=0 / constrained_intra=0 / bframes=5 / b_pyramid=2 / b_adapt=1 / b_bias=0 / direct=3 / weightb=1 / open_gop=0 / weightp=2 / keyint=250 / keyint_min=23 / scenecut=40 / intra_refresh=0 / rc_lookahead=40 / rc=2pass / mbtree=1 / bitrate=3145 / ratetol=1.0 / qcomp=0.60 / qpmin=0 / qpmax=69 / qpstep=4 / cplxblur=20.0 / qblur=0.5 / vbv_maxrate=14000 / vbv_bufsize=14000 / nal_hrd=none / filler=0 / ip_ratio=1.40 / aq=1:1.00
Language : English
Default : Yes
Forced : No

Audio #1
ID : 2
Format : AC-3
Format/Info : Audio Coding 3
Muxing mode : Header stripping
Codec ID : A_AC3
Duration : 2 h 0 min
Bit rate mode : Constant
Bit rate : 640 kb/s
Channel(s) : 6 channels
Channel positions : Front: L C R, Side: L R, LFE
Sampling rate : 48.0 kHz
Frame rate : 31.250 FPS (1536 SPF)
Bit depth : 16 bits
Compression mode : Lossy
Stream size : 551 MiB (14%)
Title : THAI Master 5.1 @ 640 Kbps
Language : Thai
Service kind : Complete Main
Default : Yes
Forced : Yes

Audio #2
ID : 3
Format : DTS
Format/Info : Digital Theater Systems
Muxing mode : Header stripping
Codec ID : A_DTS
Duration : 2 h 0 min
Bit rate mode : Constant
Bit rate : 755 kb/s
Channel(s) : 6 channels
Channel positions : Front: L C R, Side: L R, LFE
Sampling rate : 48.0 kHz
Frame rate : 93.750 FPS (512 SPF)
Bit depth : 24 bits
Compression mode : Lossy
Stream size : 650 MiB (16%)
Title : ENG DTS 5.1 @ 755 Kbps
Language : English
Default : No
Forced : No

Text #1
ID : 4
Format : VobSub
Muxing mode : zlib
Codec ID : S_VOBSUB
Codec ID/Info : Picture based subtitle format used on DVDs
Title : THAI 1080p Bluray Master
Language : Thai
Default : Yes
Forced : Yes

Text #2
ID : 5
Format : VobSub
Muxing mode : zlib
Codec ID : S_VOBSUB
Codec ID/Info : Picture based subtitle format used on DVDs
Title : THAI 1080p Yellow
Language : Thai
Default : No
Forced : No

Text #3
ID : 6
Format : VobSub
Muxing mode : zlib
Codec ID : S_VOBSUB
Codec ID/Info : Picture based subtitle format used on DVDs
Title : THAI 1080p Out
Language : Thai
Default : No
Forced : No

Text #4
ID : 7
Format : PGS
Muxing mode : zlib
Codec ID : S_HDMV/PGS
Codec ID/Info : Picture based subtitle format used on BDs/HD-DVDs
Title : THAI PGS 1080p Bluray Master
Language : Thai
Default : No
Forced : No

Text #5
ID : 8
Format : PGS
Muxing mode : zlib
Codec ID : S_HDMV/PGS
Codec ID/Info : Picture based subtitle format used on BDs/HD-DVDs
Title : THAI PGS 1080p Bluray Master Out
Language : Thai
Default : No
Forced : No

Text #6
ID : 9
Format : PGS
Muxing mode : zlib
Codec ID : S_HDMV/PGS
Codec ID/Info : Picture based subtitle format used on BDs/HD-DVDs
Title : ENG PGS 1080p Bluray Master
Language : English
Default : No
Forced : No

DOWNLOAD


PART01 |||| PART02 |||| PART03 |||| PART04

PART01 |||| PART02 |||| PART03 |||| PART04

PART01 |||| PART02 |||| PART03 |||| PART04

PART01 |||| PART02 |||| PART03 |||| PART04

PART01 |||| PART02 |||| PART03 |||| PART04


2 Comments
  1. DemoLish says

    ไฟล์เสียครับ

    1. Admin
      Admin says

      แก้ไขเรียบร้อยฮ๊ะ

Leave A Reply

อีเมล์ของคุณจะไม่แสดงให้เห็น Your email address will not be published.

%d bloggers like this: