[MINI Super-HQ] The Shawshank Redemption (1994) ชอว์แชงค์ มิตรภาพ ความหวัง ความรุนแรง [1080p] [พากย์ไทย 5.1 + เสียงไทย 5.1] [บรรยายไทย + อังกฤษ] [เสียงไทย + ซับไทย] [PANDAFILE]

0

The Shawshank Redemption (1994)

โหลดหนัง The Shawshank Redemption (1994) ชอว์แชงค์ มิตรภาพ ความหวัง ความรุนแรง

Die Verurteilten (1994) 2h 22min | Drama | 9 March 1995 (Germany) Summary: Two imprisoned men bond over a number of years, finding solace and eventual redemption through acts of common decency.
Countries: USALanguages: English

เรื่องย่อ The Shawshank Redemption (1994) ชอว์แชงค์ มิตรภาพ ความหวัง ความรุนแรง

ทิม ร็อบบินส์ รับบท แอนดี้ ดูเฟรนส์ นายธนาคารหนุ่มชาวอังกฤษ เขาคือผู้ประสบความสำเร็จในอาชีพการงานเป็นอย่างสูง แต่แล้วชีวิตก็ต้องพลิกผัน เมื่อกลายเป็นผู้ที่ถูกตัดสินให้จำคุกตลอดชีวิตข้อหา ฆาตกรรมภรรยาและชู้รักของเธอในปี 1947

แอนดี้ทำจริงหรือไม่? เขาอ้างว่าตัวเองบริสุทธิ์ ! แต่หลักฐานและพยานที่มี ทำให้ศาลเชื่อว่าเขาผิด ผลของคำตัดสินส่งเขาเข้าไปอยู่ใน Shawshank State คุกที่มีการควบคุมอย่างเข้มงวดที่สุด ใน Shawshank และแอนดี้ไม่เป็นที่ชื่นชอบของเหล่านักโทษคนอื่นนัก เขาเป็นคนเงียบๆ เป็นนักอ่าน และชอบเก็บตัว แอนดี้ไม่ต้องการที่จะทำความคุ้นเคยกับเพื่อนนักโทษค นอื่นๆ จนกระทั่งเขา ได้ยินชื่อเสียงของ เรด นักโทษรุ่นใหญ่ ผู้ที่อยู่มานานจนเป็นที่รู้จักกันดีในฐานะของคนรับจ ัดหาของหายากให้กับเหล่านักโทษ ซึ่งส่วนใหญ่มักเป็นของที่ห้ามมีไว้ครอบครองใน Shawshank แอนดี้บอกกับเรดว่าเขาต้องการค้อนเล็กๆ สำหรับแกะสลักหินในยามว่าง และเรดได้จัดหาให้กับเขา หลังจากนั้นแอนดี้ได้ใช้ความเชี่ยวชาญในทางบัญชีให้เ กิดประโยชน์กับเหล่าผู้คุมไปจนถึงพัสดีด้วย การช่วยหลีกเลี่ยงภาษี ทำให้เขาได้รับสิทธิพิเศษใน Shawshank แต่แอนดี้ไม่ได้ใช้สิทธินั้นทำเพื่อตัวเอง เขากลับใช้มันทำประโยชน์ให้กับเพื่อนนักโทษคนอื่น ด้วยการพัฒนาความเป็นอยู่ภายใน Shawshank ให้ดีขึ้น แอนดี้ดูเหมือนคนที่ไม่เห็นแก่ตัว การกระทำที่ตามมาในตอนหลังๆ แสดงให้ทุกคนเห็นถึงการอุทิศตนเพื่อเพื่อนที่อยู่ร่ว มชะตากรรมเดียวกัน …แต่ที่สุดแล้วเราก็ได้พบว่า แอนดี้เป็นมากกว่าที่เขาแสดงให้เห็น ….เขาใช้เวลาที่ไม่มีใครคาดคิด ไม่มีใครฝันถึง ในการทำงานบางอย่างที่ยิ่งใหญ่ และต้องอดทน เกินกว่าที่ใครๆ จะรู้ เพื่อสร้างปรากฏการณ์ครั้งเดียวที่จะเปลี่ยนแปลงชีวิ ตของเขาไปตลอดกาล …ความสัมพันธ์ระหว่างแอนดี้กับเรด คือศูนย์กลางของเรื่อง และทั้งทิมกับมอร์แกนแสดงความสามารถได้อย่างท็อปฟอร์ ม ทำให้หนังดูจริงจัง และน่าเชื่อถือ..

Complete name : [MINI Super-HQ]_The.Shawshank.Redemption.1994.1080p.BrRip.AC3.x264.One2loadup.com.mkv
Format : Matroska
Format version : Version 2
File size : 5.18 GiB
Duration : 2 h 22 min
Overall bit rate mode : Variable
Overall bit rate : 5 203 kb/s
Movie name : [MINI Super-HQ]_The.Shawshank.Redemption.1994.1080p.BrRip.AC3.x264.One2loadup.com
Encoded date : UTC 2013-04-07 14:30:06
Writing application : mkvmerge v3.4.0 (‘Rapunzel’) built on May 15 2010 09:38:20
Writing library : libebml v0.8.0 + libmatroska v0.9.0

Video
ID : 1
Format : AVC
Format/Info : Advanced Video Codec
Format profile : [email protected]
Format settings : CABAC / 8 Ref Frames
Format settings, CABAC : Yes
Format settings, ReFrames : 8 frames
Codec ID : V_MPEG4/ISO/AVC
Duration : 2 h 22 min
Bit rate mode : Variable
Bit rate : 4 418 kb/s
Maximum bit rate : 300 Mb/s
Width : 1 920 pixels
Height : 1 080 pixels
Display aspect ratio : 16:9
Frame rate mode : Constant
Frame rate : 23.976 (24000/1001) FPS
Color space : YUV
Chroma subsampling : 4:2:0
Bit depth : 8 bits
Scan type : Progressive
Bits/(Pixel*Frame) : 0.089
Stream size : 4.31 GiB (83%)
Title : [MINI Super-HQ]_The.Shawshank.Redemption.1994.1080p.BrRip.AC3.x264.One2loadup.com
Writing library : x264 core 129 r2245 bc13772
Encoding settings : cabac=1 / ref=8 / deblock=1:0:0 / analyse=0x3:0x133 / me=umh / subme=10 / psy=1 / psy_rd=1.00:0.00 / mixed_ref=1 / me_range=24 / chroma_me=1 / trellis=2 / 8x8dct=1 / cqm=0 / deadzone=21,11 / fast_pskip=1 / chroma_qp_offset=-2 / threads=9 / lookahead_threads=1 / sliced_threads=0 / nr=0 / decimate=1 / interlaced=0 / bluray_compat=0 / constrained_intra=0 / bframes=3 / b_pyramid=0 / b_adapt=2 / b_bias=0 / direct=3 / weightb=1 / open_gop=0 / weightp=2 / keyint=240 / keyint_min=24 / scenecut=40 / intra_refresh=0 / rc_lookahead=60 / rc=2pass / mbtree=1 / bitrate=4418 / ratetol=1.0 / qcomp=0.60 / qpmin=0 / qpmax=69 / qpstep=4 / cplxblur=20.0 / qblur=0.5 / vbv_maxrate=300000 / vbv_bufsize=300000 / nal_hrd=vbr / ip_ratio=1.40 / aq=1:1.00
Language : English
Default : Yes
Forced : No

Audio #1
ID : 2
Format : AC-3
Format/Info : Audio Coding 3
Commercial name : Dolby Digital
Codec ID : A_AC3
Duration : 2 h 22 min
Bit rate mode : Constant
Bit rate : 384 kb/s
Channel(s) : 6 channels
Channel layout : L R C LFE Ls Rs
Sampling rate : 48.0 kHz
Frame rate : 31.250 FPS (1536 SPF)
Bit depth : 16 bits
Compression mode : Lossy
Stream size : 392 MiB (7%)
Title : ac3 br-master
Language : Thai
Service kind : Complete Main
Default : Yes
Forced : No

Audio #2
ID : 3
Format : AC-3
Format/Info : Audio Coding 3
Commercial name : Dolby Digital
Codec ID : A_AC3
Duration : 2 h 22 min
Bit rate mode : Constant
Bit rate : 384 kb/s
Channel(s) : 6 channels
Channel layout : L R C LFE Ls Rs
Sampling rate : 48.0 kHz
Frame rate : 31.250 FPS (1536 SPF)
Bit depth : 16 bits
Compression mode : Lossy
Stream size : 392 MiB (7%)
Title : ac3 br-master
Language : English
Service kind : Complete Main
Default : No
Forced : No

Text #1
ID : 4
Format : VobSub
Muxing mode : zlib
Codec ID : S_VOBSUB
Codec ID/Info : Picture based subtitle format used on DVDs
Title : br-master
Language : Thai
Default : No
Forced : No

Text #2
ID : 5
Format : VobSub
Muxing mode : zlib
Codec ID : S_VOBSUB
Codec ID/Info : Picture based subtitle format used on DVDs
Title : br-master
Language : Thai
Default : No
Forced : No

Text #3
ID : 6
Format : VobSub
Muxing mode : zlib
Codec ID : S_VOBSUB
Codec ID/Info : Picture based subtitle format used on DVDs
Title : br-master
Language : English
Default : No
Forced : No

DOWNLOAD


PART01 |||| PART02 |||| PART03 |||| PART04 |||| PART05 |||| PART06

PART01 |||| PART02 |||| PART03 |||| PART04 |||| PART05 |||| PART06

PART01 |||| PART02 |||| PART03 |||| PART04 |||| PART05 |||| PART06

PART01 |||| PART02 |||| PART03 |||| PART04 |||| PART05 |||| PART06


Leave A Reply

Your email address will not be published.

%d bloggers like this: