[MINI Super-HQ] The Lion King (2019) เดอะ ไลอ้อน คิง [1080p] [พากย์ไทย 5.1 + เสียงอังกฤษ DTS] [บรรยายไทย + อังกฤษ] [เสียงไทย + ซับไทย] [DOSYAUPLOAD]

0

โหลดหนัง The Lion King (2019) เดอะ ไลอ้อน คิง

The Lion King (2019) 118min | Animation, Adventure, Drama, Family, Musical | July 19, 2019 (United States) Summary: After the murder of his father, a young lion prince flees his kingdom only to learn the true meaning of responsibility and bravery.
Countries: United States, United Kingdom, South AfricaLanguages: English, Xhosa, Zulu, French, Spanish, Hindi

เรื่องย่อ The Lion King (2019) เดอะ ไลอ้อน คิง

เรื่องราวของสิงโตแห่งผาทรนง เมื่อเจ้าป่ามูฟาซ่าถูกฆ่าตาย และสการ์น้องชายผู้ริษยาโยนความผิดนี้ให้กับซิมบ้า ลูกชายของมูฟาซ่า ทำให้ซิมบ้าต้องหนีอดีตอันแสนเจ็บปวดและยึดถือคติการ ดำรงชีวิตใหม่คือ “ฮากูน่า มาทาท่า” เรื่องราวของการผจญภัย โชคชะตา และความรัก สร้างจากแอนิเมชั่นที่ประสบความสำเร็จกวาดรายได้ มากถึง 968 ล้านดอลล่าร์สหรัฐฯ

” ซิมบ้า “ เกิดมาเพื่อเป็นราชาอย่างแท้จริง วันที่ซิมบ้าถือกำเนิด เหล่าฝูงสัตว์แซ่ซร้อง โห่ร้องลั่นป่าด้วยความยินดี ซิมบ้าถูกเลี้ยงแบบธรรมดาเหมือนสิงโตตัวน้อยๆซุกซนไปตามธรรมชาติ และพ่อของซิมบ้าห้ามเด็ดขาดไม่ให้ไปป่าต้องห้าม แต่ซิมบ้าซนถึงขนาดจะเอาชีวิตไม่รอดจากฝูงไฮยีน่าในป่าต้องห้ามนั้น เมื่อเติบโตขึ้นจึงเข้าใจชีวิตมากขึ้น ซิมบ้าถูก ” มูฟาซ่า “ พ่อของเขาสอนให้เข้าใจสัจธรรม และธรรมของเจ้าป่า ต้องเข้าใจและรักษาสมดุลของชีวิตสัตว์นักล่าทั้งหลายในป่านี้ไว้

” สการ์ “ อาของซิมบ้า เจ้านี่มันร้ายอย่างมากเพราะวางแผนฆ่ามูฟาซ่าและโยนความผิดให้ซิมบ้า โดยการคิดแผนร้ายกับฝูงไฮยี่น่าสัตว์ที่เป็นที่รังเกียจของสังคมสัตว์ในอาณาจักรสิงโต เพราะไอเจ้าฝูงไฮยีน่านี้ไปถึงไหน ความวอดวายบรรลัยเกิดขึ้นที่นั่น สิ่งที่สการ์ต้องการคือ ตำแหน่ง “เจ้าป่า” โดยไม่เคยสนใจว่าจะสร้างความเสียหายให้กับสังคมเท่าไหร่ ขออย่างเดียวให้ตนเองได้เป็นเจาป่าอยู่ท่ามกลางตำแหน่งใหญ่โต หลังจากสการ์ขึ้นครองอำนาจ สมดุลแห่งห่วงโซ่เปลี่ยนแปลง ฝูงสัตว์เริ่มอพยพหนีออกจากอาณาจักร เพราะรู้สึกไม่มั่นคงในชีวิตอีกต่อไปสังคมจากความอุดมสมบูรณ์ก็กลายเป็นความแห้งแล้งกันดาร ซิมบ้าจะทำยังไง จะทวงตำแหน่งราชาคืนมาได้หรือไม่ โปรดติดตาม…!!!

Complete name : [MINI Super-HQ]_The.Lion.King.2019.1080p.BrRip.DTS.x264.One2loadup.com.mkv
Format : Matroska
Format version : Version 4
File size : 3.89 GiB
Duration : 1 h 58 min
Overall bit rate : 4 713 kb/s
Movie name : [MINI Super-HQ]_The.Lion.King.2019.1080p.BrRip.DTS.x264.One2loadup.com
Encoded date : UTC 2021-08-12 11:12:12
Writing application : mkvmerge v9.8.0 (‘Kuglblids’) 64bit
Writing library : libebml v1.3.4 + libmatroska v1.4.5

Video
ID : 1
Format : AVC
Format/Info : Advanced Video Codec
Format profile : [email protected]
Format settings : CABAC / 4 Ref Frames
Format settings, CABAC : Yes
Format settings, Reference : 4 frames
Codec ID : V_MPEG4/ISO/AVC
Duration : 1 h 58 min
Bit rate : 3 450 kb/s
Width : 1 920 pixels
Height : 1 080 pixels
Display aspect ratio : 16:9
Frame rate mode : Constant
Frame rate : 23.976 (24000/1001) FPS
Color space : YUV
Chroma subsampling : 4:2:0
Bit depth : 8 bits
Scan type : Progressive
Bits/(Pixel*Frame) : 0.069
Stream size : 2.85 GiB (73%)
Title : [MINI Super-HQ]_The.Lion.King.2019.1080p.BrRip.DTS.x264.One2loadup.com
Writing library : x264 core 146 r2538 121396c
Encoding settings : cabac=1 / ref=5 / deblock=1:-3:-3 / analyse=0x3:0x133 / me=tesa / subme=11 / psy=1 / psy_rd=1.00:0.15 / mixed_ref=1 / me_range=48 / chroma_me=1 / trellis=2 / 8x8dct=1 / cqm=0 / deadzone=21,11 / fast_pskip=1 / chroma_qp_offset=-3 / threads=54 / lookahead_threads=4 / sliced_threads=0 / nr=0 / decimate=1 / interlaced=0 / bluray_compat=1 / constrained_intra=0 / bframes=3 / b_pyramid=1 / b_adapt=2 / b_bias=0 / direct=3 / weightb=1 / open_gop=0 / weightp=1 / keyint=250 / keyint_min=1 / scenecut=40 / intra_refresh=0 / rc_lookahead=60 / rc=2pass / mbtree=1 / bitrate=3450 / ratetol=1.0 / qcomp=0.60 / qpmin=0 / qpmax=69 / qpstep=4 / cplxblur=20.0 / qblur=0.5 / ip_ratio=1.40 / aq=1:1.30
Language : English
Default : Yes
Forced : No

Audio #1
ID : 2
Format : AC-3
Format/Info : Audio Coding 3
Commercial name : Dolby Digital
Codec ID : A_AC3
Duration : 1 h 58 min
Bit rate mode : Constant
Bit rate : 384 kb/s
Channel(s) : 6 channels
Channel layout : L R C LFE Ls Rs
Sampling rate : 48.0 kHz
Frame rate : 31.250 FPS (1536 SPF)
Compression mode : Lossy
Stream size : 325 MiB (8%)
Title : Thai 5.1 Master
Language : Thai
Service kind : Complete Main
Default : Yes
Forced : Yes

Audio #2
ID : 3
Format : DTS
Format/Info : Digital Theater Systems
Codec ID : A_DTS
Duration : 1 h 58 min
Bit rate mode : Constant
Bit rate : 755 kb/s
Channel(s) : 6 channels
Channel layout : C L R Ls Rs LFE
Sampling rate : 48.0 kHz
Frame rate : 93.750 FPS (512 SPF)
Bit depth : 24 bits
Compression mode : Lossy
Stream size : 638 MiB (16%)
Title : English DTS-5.1
Language : English
Default : No
Forced : No

Text #1
ID : 4
Format : PGS
Codec ID : S_HDMV/PGS
Codec ID/Info : Picture based subtitle format used on BDs/HD-DVDs
Duration : 1 h 57 min
Bit rate : 31.6 kb/s
Count of elements : 2722
Stream size : 26.6 MiB (1%)
Title : Thai 1080p PGS
Language : Thai
Default : Yes
Forced : Yes

Text #2
ID : 5
Format : VobSub
Codec ID : S_VOBSUB
Codec ID/Info : Picture based subtitle format used on DVDs
Duration : 1 h 57 min
Bit rate : 7 353 b/s
Count of elements : 1359
Stream size : 6.18 MiB (0%)
Title : Thai 1080p
Language : Thai
Default : No
Forced : No

Text #3
ID : 6
Format : PGS
Codec ID : S_HDMV/PGS
Codec ID/Info : Picture based subtitle format used on BDs/HD-DVDs
Duration : 1 h 57 min
Bit rate : 31.1 kb/s
Count of elements : 2722
Stream size : 26.2 MiB (1%)
Title : Thai 1080p Out PGS
Language : Thai
Default : No
Forced : No

Text #4
ID : 7
Format : VobSub
Codec ID : S_VOBSUB
Codec ID/Info : Picture based subtitle format used on DVDs
Duration : 1 h 57 min
Bit rate : 7 261 b/s
Count of elements : 1359
Stream size : 6.10 MiB (0%)
Title : Thai 1080p Out
Language : Thai
Default : No
Forced : No

Text #5
ID : 8
Format : VobSub
Codec ID : S_VOBSUB
Codec ID/Info : Picture based subtitle format used on DVDs
Duration : 1 h 57 min
Bit rate : 10.1 kb/s
Count of elements : 1359
Stream size : 8.45 MiB (0%)
Title : Thai 1080p Big [Yellow]
Language : Thai
Default : No
Forced : No

Text #6
ID : 9
Format : PGS
Codec ID : S_HDMV/PGS
Codec ID/Info : Picture based subtitle format used on BDs/HD-DVDs
Duration : 1 h 52 min
Bit rate : 37.5 kb/s
Count of elements : 3420
Stream size : 30.0 MiB (1%)
Title : English PGS
Language : English
Default : No
Forced : No

Menu
00:00:00.000 : en:00:00:00.000
00:04:50.499 : en:00:04:50.499
00:10:51.067 : en:00:10:51.067
00:17:47.692 : en:00:17:47.692
00:23:53.015 : en:00:23:53.015
00:30:00.132 : en:00:30:00.132
00:33:05.066 : en:00:33:05.066
00:37:09.310 : en:00:37:09.310
00:43:42.912 : en:00:43:42.912
00:50:47.336 : en:00:50:47.336
00:55:02.716 : en:00:55:02.716
00:59:48.460 : en:00:59:48.460
01:06:27.233 : en:01:06:27.233
01:14:32.093 : en:01:14:32.093
01:18:26.410 : en:01:18:26.410
01:23:07.900 : en:01:23:07.900
01:28:04.654 : en:01:28:04.654
01:33:10.877 : en:01:33:10.877
01:37:13.745 : en:01:37:13.745
01:44:39.190 : en:01:44:39.190
01:47:47.336 : en:01:47:47.336

DOWNLOAD


PART01 |||| PART02 |||| PART03 |||| PART04

PART01 |||| PART02 |||| PART03 |||| PART04

PART01 |||| PART02 |||| PART03 |||| PART04

PART01 |||| PART02 |||| PART03 |||| PART04

PART01 |||| PART02 |||| PART03 |||| PART04


Leave A Reply

อีเมล์ของคุณจะไม่แสดงให้เห็น Your email address will not be published.

%d bloggers like this: