[MINI Super-HQ] The Last Shift (2020) กะสุดท้าย [1080p] [พากย์ไทย 2.0 + เสียงอังกฤษ 5.1] [บรรยายไทย + อังกฤษ] [เสียงไทยมาสเตอร์ + ซับไทย] [USERLOAD]

0

โหลดหนัง The Last Shift (2020) กะสุดท้าย

The Last Shift 90min | Comedy, Drama | September 25, 2020 (United States) Summary: Stanley's last shift at his fast food job takes an unexpected turn when he befriends a young African-American work employee.
Countries: United StatesLanguages: English

เรื่องย่อ The Last Shift (2020) กะสุดท้าย

เรื่องราวเกิดขึ้นจาก ‘สแตนลี่ย์’ หนุ่มวัยชราที่ทำงานให้กับร้าน Oscar’s ร้านอาหาร Fast Food แห่งหนึ่งที่ยาวนานมากถึง 38 ปี และเขากำลังจะลาออก แต่ก่อนที่จะลาออกและได้เงินเดือนเขามีเงื่อนไขก็คือจะต้องสอนงานให้กับเด็กใหม่ก่อนนั้นคือ ‘เจวอน’ เด็กหนุ่มที่จำเป็นจะต้องทำงานเพราะเขานั้นจะต้องคุมความประพฤติ เนื่องจากเคยติดคุกมาโดยสแตนลี่ย์กับเจวอนค่อนข้างจะมีนิสัยที่แตกต่างกันมาก สแตนลี่ย์ เขามีความเป๊ะ ทุ่มเทให้กับร้านนี้เรียกว่าทำทุกหน้าในร้านตัดภาพไปที่เจวอนเขาเป็นสายชิล ๆ ทำให้ทั้งสองทะเลาะกันอยู่เสมอ!!!

Complete name : [MINI Super-HQ]_The.Last.Shift.2020.1080p.WEB-DL.AC3.x264.THM.One2loadup.com.mkv
Format : Matroska
Format version : Version 4
File size : 4.75 GiB
Duration : 1 h 30 min
Overall bit rate : 7 495 kb/s
Movie name : [MINI Super-HQ]_The.Last.Shift.2020.1080p.WEB-DL.AC3.x264.THM.One2loadup.com
Encoded date : UTC 2021-08-23 20:43:03
Writing application : mkvmerge v9.8.0 (‘Kuglblids’) 64bit
Writing library : libebml v1.3.4 + libmatroska v1.4.5

Video
ID : 1
Format : AVC
Format/Info : Advanced Video Codec
Format profile : [email protected]
Format settings : CABAC / 4 Ref Frames
Format settings, CABAC : Yes
Format settings, Reference : 4 frames
Codec ID : V_MPEG4/ISO/AVC
Duration : 1 h 30 min
Bit rate : 6 617 kb/s
Width : 1 920 pixels
Height : 950 pixels
Display aspect ratio : 2.021
Frame rate mode : Constant
Frame rate : 23.976 (24000/1001) FPS
Color space : YUV
Chroma subsampling : 4:2:0
Bit depth : 8 bits
Scan type : Progressive
Bits/(Pixel*Frame) : 0.151
Stream size : 4.20 GiB (88%)
Title : [MINI Super-HQ]_The.Last.Shift.2020.1080p.WEB-DL.AC3.x264.THM.One2loadup.com
Default : Yes
Forced : No
Color range : Limited
Color primaries : BT.709
Transfer characteristics : BT.709
Matrix coefficients : BT.709

Audio #1
ID : 2
Format : AC-3
Format/Info : Audio Coding 3
Commercial name : Dolby Digital
Codec ID : A_AC3
Duration : 1 h 30 min
Bit rate mode : Constant
Bit rate : 384 kb/s
Channel(s) : 2 channels
Channel layout : L R
Sampling rate : 48.0 kHz
Frame rate : 31.250 FPS (1536 SPF)
Compression mode : Lossy
Stream size : 249 MiB (5%)
Title : Thai Master
Language : Thai
Service kind : Complete Main
Default : Yes
Forced : Yes

Audio #2
ID : 3
Format : AC-3
Format/Info : Audio Coding 3
Commercial name : Dolby Digital
Codec ID : A_AC3
Duration : 1 h 30 min
Bit rate mode : Constant
Bit rate : 384 kb/s
Channel(s) : 6 channels
Channel layout : L R C LFE Ls Rs
Sampling rate : 48.0 kHz
Frame rate : 31.250 FPS (1536 SPF)
Compression mode : Lossy
Stream size : 249 MiB (5%)
Title : English 5.1
Language : English
Service kind : Complete Main
Default : No
Forced : No

Text #1
ID : 4
Format : PGS
Codec ID : S_HDMV/PGS
Codec ID/Info : Picture based subtitle format used on BDs/HD-DVDs
Duration : 1 h 30 min
Bit rate : 38.5 kb/s
Count of elements : 2038
Stream size : 25.0 MiB (1%)
Title : Thai 1080p PGS
Language : Thai
Default : Yes
Forced : Yes

Text #2
ID : 5
Format : VobSub
Codec ID : S_VOBSUB
Codec ID/Info : Picture based subtitle format used on DVDs
Duration : 1 h 30 min
Bit rate : 9 148 b/s
Count of elements : 1018
Stream size : 5.93 MiB (0%)
Title : Thai 1080p
Language : Thai
Default : No
Forced : No

Text #3
ID : 6
Format : PGS
Codec ID : S_HDMV/PGS
Codec ID/Info : Picture based subtitle format used on BDs/HD-DVDs
Duration : 1 h 30 min
Bit rate : 37.9 kb/s
Count of elements : 2038
Stream size : 24.6 MiB (1%)
Title : Thai 1080p Out PGS
Language : Thai
Default : No
Forced : No

Text #4
ID : 7
Format : VobSub
Codec ID : S_VOBSUB
Codec ID/Info : Picture based subtitle format used on DVDs
Duration : 1 h 30 min
Bit rate : 9 029 b/s
Count of elements : 1018
Stream size : 5.86 MiB (0%)
Title : Thai 1080p Out
Language : Thai
Default : No
Forced : No

Text #5
ID : 8
Format : VobSub
Codec ID : S_VOBSUB
Codec ID/Info : Picture based subtitle format used on DVDs
Duration : 1 h 30 min
Bit rate : 12.5 kb/s
Count of elements : 1018
Stream size : 8.13 MiB (0%)
Title : Thai 1080p Big [Yellow]
Language : Thai
Default : No
Forced : No

Text #6
ID : 9
Format : UTF-8
Codec ID : S_TEXT/UTF8
Codec ID/Info : UTF-8 Plain Text
Duration : 1 h 22 min
Bit rate : 61 b/s
Count of elements : 1004
Stream size : 37.3 KiB (0%)
Title : English SRT [UK]
Language : English
Default : No
Forced : No

Text #7
ID : 10
Format : UTF-8
Codec ID : S_TEXT/UTF8
Codec ID/Info : UTF-8 Plain Text
Duration : 1 h 22 min
Bit rate : 61 b/s
Count of elements : 1004
Stream size : 37.3 KiB (0%)
Title : English SRT [US]
Language : English
Default : No
Forced : No

DOWNLOAD


PART01 |||| PART02 |||| PART03 |||| PART04 |||| PART05

PART01 |||| PART02 |||| PART03 |||| PART04 |||| PART05

PART01 |||| PART02 |||| PART03 |||| PART04 |||| PART05

PART01 |||| PART02 |||| PART03 |||| PART04 |||| PART05

PART01 |||| PART02 |||| PART03 |||| PART04 |||| PART05


Leave A Reply

อีเมล์ของคุณจะไม่แสดงให้เห็น Your email address will not be published.

%d bloggers like this: