[MINI Super-HQ] The Larva Island Movie (2020) ลาร์วาผจญภัยบนเกาะหรรษา (เดอะ มูฟวี่) [NETFLIX] [1080p] [พากย์ไทย 2.0 + เสียงอังกฤษ 2.0] [บรรยายไทย + อังกฤษ] [เสียงไทยมาสเตอร์ + ซับไทย] [PANDAFILE]

0

โหลดหนัง The Larva Island Movie (2020) ลาร์วาผจญภัยบนเกาะหรรษา (เดอะ มูฟวี่)

Larva Island: Der Film (2020) 1h 29min | Animation | 23 July 2020 (USA) Summary: In this movie sequel to the hit series, Chuck returns home and talks to a reporter about life on the island with zany larva pals Red and Yellow
Countries: South KoreaLanguages: English

เรื่องย่อ The Larva Island Movie (2020) ลาร์วาผจญภัยบนเกาะหรรษา (เดอะ มูฟวี่)

เขาอยากเล่าวีรกรรมฮาเฮของสหายชาวเกาะตัวจิ๋วที่ชอบก ินและผายลมเป็นว่าเล่น แต่ใครจะเชื่อเรื่องราวที่มีแต่ตัวละครหลุดโลก

Complete name : [MINI Super-HQ]_The.Larva.Island.Movie.2020.1080p.NF.WEB-DL.EAC3.x264.THM.One2loadup.com.mkv
Format : Matroska
Format version : Version 4
File size : 4.41 GiB
Duration : 1 h 30 min
Overall bit rate mode : Variable
Overall bit rate : 6 945 kb/s
Movie name : [MINI Super-HQ]_The.Larva.Island.Movie.2020.1080p.NF.WEB-DL.EAC3.x264.THM.One2loadup.com
Encoded date : UTC 2020-07-24 09:38:50
Writing application : mkvmerge v48.0.0 (‘Fortress Around Your Heart’) 64-bit
Writing library : libebml v1.4.0 + libmatroska v1.6.0

Video
ID : 1
Format : AVC
Format/Info : Advanced Video Codec
Format profile : [email protected]
Format settings : CABAC / 3 Ref Frames
Format settings, CABAC : Yes
Format settings, ReFrames : 3 frames
Codec ID : V_MPEG4/ISO/AVC
Duration : 1 h 30 min
Bit rate mode : Variable
Bit rate : 6 810 kb/s
Maximum bit rate : 10.2 Mb/s
Width : 1 920 pixels
Height : 1 080 pixels
Display aspect ratio : 16:9
Frame rate mode : Constant
Frame rate : 24.000 FPS
Color space : YUV
Chroma subsampling : 4:2:0
Bit depth : 8 bits
Scan type : Progressive
Bits/(Pixel*Frame) : 0.137
Stream size : 4.22 GiB (96%)
Title : [MINI Super-HQ]_The.Larva.Island.Movie.2020.1080p.NF.WEB-DL.EAC3.x264.THM.One2loadup.com
Writing library : x264 core 148 r2721 6d200cf
Encoding settings : cabac=1 / ref=3 / deblock=1:0:0 / analyse=0x1:0x111 / me=umh / subme=10 / psy=1 / psy_rd=1.00:0.00 / mixed_ref=1 / me_range=24 / chroma_me=1 / trellis=2 / 8x8dct=0 / cqm=0 / deadzone=21,11 / fast_pskip=1 / chroma_qp_offset=-2 / threads=6 / lookahead_threads=1 / sliced_threads=0 / nr=0 / decimate=1 / interlaced=0 / bluray_compat=0 / stitchable=1 / constrained_intra=0 / bframes=2 / b_pyramid=0 / b_adapt=2 / b_bias=0 / direct=3 / weightb=1 / open_gop=0 / weightp=2 / keyint=250 / keyint_min=24 / scenecut=0 / intra_refresh=0 / rc_lookahead=48 / rc=2pass / mbtree=1 / bitrate=6810 / ratetol=1.0 / qcomp=0.50 / qpmin=6 / qpmax=51 / qpstep=4 / cplxblur=20.0 / qblur=0.5 / vbv_maxrate=10215 / vbv_bufsize=13620 / nal_hrd=vbr / filler=0 / ip_ratio=1.40 / aq=1:1.00
Language : English
Default : Yes
Forced : No

Audio #1
ID : 2
Format : E-AC-3
Format/Info : Enhanced AC-3
Commercial name : Dolby Digital Plus
Codec ID : A_EAC3
Duration : 1 h 30 min
Bit rate mode : Constant
Bit rate : 128 kb/s
Channel(s) : 2 channels
Channel layout : L R
Sampling rate : 48.0 kHz
Frame rate : 31.250 FPS (1536 SPF)
Compression mode : Lossy
Stream size : 83.3 MiB (2%)
Title : English
Language : English
Service kind : Complete Main
Default : No
Forced : No

Audio #2
ID : 3
Format : E-AC-3
Format/Info : Enhanced AC-3
Commercial name : Dolby Digital Plus
Codec ID : A_EAC3
Duration : 1 h 30 min
Bit rate mode : Constant
Bit rate : 128 kb/s
Channel(s) : 2 channels
Channel layout : L R
Sampling rate : 48.0 kHz
Frame rate : 31.250 FPS (1536 SPF)
Compression mode : Lossy
Stream size : 83.3 MiB (2%)
Title : Thai
Language : Thai
Service kind : Complete Main
Default : Yes
Forced : No

Text #1
ID : 4
Format : UTF-8
Codec ID : S_TEXT/UTF8
Codec ID/Info : UTF-8 Plain Text
Duration : 1 h 28 min
Bit rate : 56 b/s
Count of elements : 594
Stream size : 36.4 KiB (0%)
Title : Thai SRT From Netflix
Language : Thai
Default : Yes
Forced : No

Text #2
ID : 5
Format : UTF-8
Codec ID : S_TEXT/UTF8
Codec ID/Info : UTF-8 Plain Text
Duration : 1 h 24 min
Bit rate : 0 b/s
Count of elements : 7
Stream size : 211 Bytes (0%)
Title : Thai SRT From Netflix Forced
Language : Thai
Default : No
Forced : No

Text #3
ID : 6
Format : UTF-8
Codec ID : S_TEXT/UTF8
Codec ID/Info : UTF-8 Plain Text
Duration : 1 h 28 min
Bit rate : 63 b/s
Count of elements : 2177
Stream size : 41.5 KiB (0%)
Title : English SRT
Language : English
Default : No
Forced : No

Text #4
ID : 7
Format : PGS
Muxing mode : zlib
Codec ID : S_HDMV/PGS
Codec ID/Info : Picture based subtitle format used on BDs/HD-DVDs
Duration : 1 h 28 min
Bit rate : 17.0 kb/s
Count of elements : 1188
Stream size : 10.8 MiB (0%)
Title : Thai PGS [Angsana]
Language : Thai
Default : No
Forced : No

Text #5
ID : 8
Format : PGS
Muxing mode : zlib
Codec ID : S_HDMV/PGS
Codec ID/Info : Picture based subtitle format used on BDs/HD-DVDs
Duration : 1 h 28 min
Bit rate : 17.0 kb/s
Count of elements : 1188
Stream size : 10.8 MiB (0%)
Title : Thai PGS [Angsana Yellow]
Language : Thai
Default : No
Forced : No

Text #6
ID : 9
Format : PGS
Muxing mode : zlib
Codec ID : S_HDMV/PGS
Codec ID/Info : Picture based subtitle format used on BDs/HD-DVDs
Duration : 1 h 28 min
Bit rate : 16.8 kb/s
Count of elements : 1188
Stream size : 10.7 MiB (0%)
Title : Thai PGS [Sarabun]
Language : Thai
Default : No
Forced : No

Text #7
ID : 10
Format : PGS
Muxing mode : zlib
Codec ID : S_HDMV/PGS
Codec ID/Info : Picture based subtitle format used on BDs/HD-DVDs
Duration : 1 h 28 min
Bit rate : 16.8 kb/s
Count of elements : 1188
Stream size : 10.7 MiB (0%)
Title : Thai PGS [Sarabun Yellow]
Language : Thai
Default : No
Forced : No

Text #8
ID : 11
Format : PGS
Muxing mode : zlib
Codec ID : S_HDMV/PGS
Codec ID/Info : Picture based subtitle format used on BDs/HD-DVDs
Duration : 1 h 28 min
Bit rate : 41.8 kb/s
Count of elements : 4354
Stream size : 26.5 MiB (1%)
Title : English PGS
Language : English
Default : No
Forced : No

DOWNLOAD


PART01 |||| PART02 |||| PART03 |||| PART04 |||| PART05

PART01 |||| PART02 |||| PART03 |||| PART04 |||| PART05

PART01 |||| PART02 |||| PART03 |||| PART04 |||| PART05

PART01 |||| PART02 |||| PART03 |||| PART04 |||| PART05

PART01 |||| PART02 |||| PART03 |||| PART04 |||| PART05



Disable Comments
%d bloggers like this: