[MINI-HD] 12 Feet Deep (2017) ถูกขังตายอยู่ใต้สระน้ำ [1080p] [พากย์อังกฤษ 5.1] [Soundtrack บรรยายไทย] [เสียงอังกฤษ + ซับไทย] [PANDAFILE]

2

โหลดหนัง 12 Feet Deep (2017) ถูกขังตายอยู่ใต้สระน้ำ

12 Feet Deep (2017) 1h 25min | Horror, Thriller | 20 June 2017 (USA) Summary: Two sisters are trapped under the fiberglass cover of an Olympic sized public pool and must brave the cold and each other to survive the harrowing night.
Countries: USALanguages: English

เรื่องย่อ 12 Feet Deep (2017) ถูกขังตายอยู่ใต้สระน้ำ

ผู้หญิงสองคนถูกขังไว้ใต้สระว่ายน้ำโดยไม่ได้ตั้งใจ ทั้งคู่ต้องหาทางออกก่อนที่ร่างกายจะหมดเเรงเเล้วจมน ้ำตาย หนังได้แรงบันดาลใจจากเหตุการณ์จริง ” 12 Feet Deep หรือ The Deep End หนังระทึกขวัญเรื่องใหม่ล่าสุดของผู้กำกับ Matt Eskandari (ผู้กำกับ Victim 2010) กลับมาคราวนี้นำหนังระทึกขวัญเรื่องใหม่มาฝากพวกเราด ้วย กับเรื่องราวของสองสาวที่ติดอยู่ใต้สระว่ายน้ำท่ามกล างค่ำคืนที่เเสนหฤโหด ไร้ซึ่งทางออก ไร้คนมาช่วย ถ้าร่ายกายหมดเเรงก็เตรียมตัวตายได้เลย หนังอ้างว่าได้แรงบันดาลใจจากเหตุการณ์จริง พร้อมถ่ายทอดออกมาเป็นภาพยนตร์ให้เราได้ดูกัน เเค่ตัวอย่างก็น่าดูเเล้ว เพราะเหตุการณ์นี้มันอาจเกิดขึ้นจริงๆรอบตัวเราก็เป็ นได้ เห็นเเล้วมันชั่งน่าระทึกขวัญซะเหลือเกิน หนังได้ตาเเก่จิกซอว์อย่าง Tobin Bell มาร่วมเเสดงนำด้วย (ว่าเเต่ตอนจบมันจะหักมุมไหมนะ ไว้รอดูพร้อมกัน ) หนังเล่าเรื่องราวของสองสาวที่ถูกขังตายอยู่ใต้สระว่ายน้ำขนาดใหญ่ที่มีฝาเลื่อนปิด ไร้ซึ่งทางออกเเละผู้คนที่จะมาช่วย ทั้งสองต้องอยู่ท่ามกลางค่ำคืนที่น่ากลัวเเละเต็มไปด้วยน้ำมากมายมหาศาลเทียบเท่า 1 เเสนเเกลลอน ถ้าร่างกายไม่อึดพอ หมดเเรง หรือเป็นตะคริว ก็เตรียมบอกลาโลกนี้ได้เลย คนทั้งคู่จะสามารถออกมาจากสระว่ายน้ำได้หรือไม่ หรือจะต้องตายสังเวยให้เเก่สระเเห่งนี้ ต้องติดตาม

Complete name : [MINI-HD]_12.Feet.Deep.2017.1080p.WEB-DL.AC3.x264.Subthai.One2loadup.com.mkv
Format : Matroska
Format version : Version 2
File size : 4.86 GiB
Duration : 1 h 25 min
Overall bit rate : 8 143 kb/s
Movie name : [MINI-HD]_12.Feet.Deep.2017.1080p.WEB-DL.AC3.x264.Subthai.One2loadup.com
Writing application : HandBrake 0.10.1 2015030800
Writing library : Lavf55.12.0

Video
ID : 1
Format : AVC
Format/Info : Advanced Video Codec
Format profile : [email protected]
Format settings : CABAC / 4 Ref Frames
Format settings, CABAC : Yes
Format settings, ReFrames : 4 frames
Codec ID : V_MPEG4/ISO/AVC
Duration : 1 h 25 min
Bit rate : 7 597 kb/s
Nominal bit rate : 8 000 kb/s
Width : 1 904 pixels
Height : 1 064 pixels
Display aspect ratio : 16:9
Frame rate mode : Constant
Frame rate : 23.976 (24000/1001) FPS
Color space : YUV
Chroma subsampling : 4:2:0
Bit depth : 8 bits
Scan type : Progressive
Bits/(Pixel*Frame) : 0.156
Stream size : 4.53 GiB (93%)
Title : [MINI-HD]_12.Feet.Deep.2017.1080p.WEB-DL.AC3.x264.Subthai.One2loadup.com
Writing library : x264 core 142 r2479 dd79a61
Encoding settings : cabac=1 / ref=1 / deblock=1:0:0 / analyse=0x1:0x111 / me=hex / subme=2 / psy=1 / psy_rd=1.00:0.00 / mixed_ref=0 / me_range=16 / chroma_me=1 / trellis=0 / 8x8dct=0 / cqm=0 / deadzone=21,11 / fast_pskip=1 / chroma_qp_offset=0 / threads=6 / lookahead_threads=2 / sliced_threads=0 / nr=0 / decimate=1 / interlaced=0 / bluray_compat=0 / constrained_intra=0 / bframes=3 / b_pyramid=2 / b_adapt=1 / b_bias=0 / direct=1 / weightb=1 / open_gop=0 / weightp=1 / keyint=240 / keyint_min=24 / scenecut=40 / intra_refresh=0 / rc_lookahead=10 / rc=abr / mbtree=1 / bitrate=8000 / ratetol=1.0 / qcomp=0.60 / qpmin=0 / qpmax=69 / qpstep=4 / vbv_maxrate=20000 / vbv_bufsize=25000 / nal_hrd=none / filler=0 / ip_ratio=1.40 / aq=1:1.00
Default : Yes
Forced : No
Color range : Limited
Color primaries : BT.709
Transfer characteristics : BT.709
Matrix coefficients : BT.709

Audio
ID : 2
Format : AC-3
Format/Info : Audio Coding 3
Commercial name : Dolby Digital
Codec ID : A_AC3
Duration : 1 h 25 min
Bit rate mode : Constant
Bit rate : 384 kb/s
Channel(s) : 6 channels
Channel layout : L R C LFE Ls Rs
Sampling rate : 48.0 kHz
Frame rate : 31.250 FPS (1536 SPF)
Bit depth : 16 bits
Compression mode : Lossy
Stream size : 235 MiB (5%)
Title : Surround
Language : English
Service kind : Complete Main
Default : Yes
Forced : No

Text #1
ID : 3
Format : PGS
Codec ID : S_HDMV/PGS
Codec ID/Info : Picture based subtitle format used on BDs/HD-DVDs
Default : No
Forced : No

Text #2
ID : 4
Format : VobSub
Codec ID : S_VOBSUB
Codec ID/Info : Picture based subtitle format used on DVDs
Language : Thai
Default : Yes
Forced : No

Text #3
ID : 5
Format : VobSub
Codec ID : S_VOBSUB
Codec ID/Info : Picture based subtitle format used on DVDs
Language : Thai
Default : No
Forced : No

DOWNLOAD


PART01 |||| PART02 |||| PART03 |||| PART04 |||| PART05

PART01 |||| PART02 |||| PART03 |||| PART04 |||| PART05

PART01 |||| PART02 |||| PART03 |||| PART04 |||| PART05

PART01 |||| PART02 |||| PART03 |||| PART04 |||| PART05

PART01 |||| PART02 |||| PART03 |||| PART04 |||| PART05


2 Comments
  1. Theera Seetasut
    Theera Seetasut says

    โหลดไม่ได้ครับ

    1. Admin
      Admin says

      แก้ไขเรียบร้อยฮ๊ะ


Disable Comments
%d bloggers like this: