[MINI Super-HQ] The King of Staten Island (2020) ราชาแห่งเกาะสแตเทน [1080p] [พากย์ไทย 2.0 + เสียงอังกฤษ DTS] [บรรยายไทย + อังกฤษ] [เสียงไทยมาสเตอร์ + ซับไทย] [PANDAFILE]

0

โหลดหนัง The King of Staten Island (2020) ราชาแห่งเกาะสแตเทน

The King of Staten Island (2020) 2h 16min | Comedy, Drama | 12 June 2020 (USA) Summary: Scott has been a case of arrested development since his firefighter dad died. He spends his days smoking weed and dreaming of being a tattoo artist until events force him to grapple with his grief and take his first steps forward in life.
Countries: USA, JapanLanguages: English

เรื่องย่อ The King of Staten Island (2020) ราชาแห่งเกาะสแตเทน

สกอตต์เป็นกรณีของการพัฒนาที่ถูกจับกุมนับตั้งแต่พ่อ นักผจญเพลิงของเขาเสียชีวิตเมื่อเขาอายุเจ็ดขวบตอนนี้เขาอายุ 20 กลางๆแล้วโดยประสบความสำเร็จเพียงเล็กน้อยไล่ตามความ ฝันที่จะเป็นช่างสักที่ดูเหมือนจะไกลเกินเอื้อม
ในขณะที่น้องสาวผู้ทะเยอทะยานของเขามุ่งหน้าไปเรียนที่วิทยาลัยสก็อตต์ยังคงอาศัยอยู่กับแม่พยาบาล ER ที่เหนื่อยล้าและใช้ชีวิตไปกับการสูบบุหรี่วัชพืชแขวนคอกับผู้ชายทั้งออสการ์อิกอร์และริชชี่และแอบติดต่อกับเคลซีย์เพื่อนสมัยเด็กของเขาอย่างลับๆ แต่เมื่อแม่ของเขาเริ่มออกเดทกับนักดับเพลิงชื่อดังท ี่ชื่อเรย์มันทำให้เกิดเหตุการณ์ต่างๆมากมายที่จะบีบให้สก็อตต์ต้องต่อสู้กับความเศร้าโศกของเขาและทำตามขั้นตอนเบื้องต้นเพื่อก้าวไปข้างหน้าในชีวิต! !!

Complete name : [MINI Super-HQ]_The.King.of.Staten.Island.2020.1080p.BrRip.AC3.x264.THM.One2loadup.com.mkv
Format : Matroska
Format version : Version 4
File size : 4.86 GiB
Duration : 2 h 17 min
Overall bit rate : 5 071 kb/s
Movie name : [MINI Super-HQ]_The.King.of.Staten.Island.2020.1080p.BrRip.AC3.x264.THM.One2loadup.com
Encoded date : UTC 2010-02-22 21:41:31
Writing application : mkvmerge v5.9.0 (‘On The Loose’) built on Dec 9 2012 15:37:01
Writing library : libebml v1.3.0 + libmatroska v1.4.0

Video
ID : 1
Format : AVC
Format/Info : Advanced Video Codec
Format profile : [email protected]
Format settings : CABAC / 5 Ref Frames
Format settings, CABAC : Yes
Format settings, ReFrames : 5 frames
Codec ID : V_MPEG4/ISO/AVC
Duration : 2 h 17 min
Bit rate : 3 832 kb/s
Width : 1 920 pixels
Height : 804 pixels
Display aspect ratio : 2.40:1
Frame rate mode : Constant
Frame rate : 23.976 (24000/1001) FPS
Color space : YUV
Chroma subsampling : 4:2:0
Bit depth : 8 bits
Scan type : Progressive
Bits/(Pixel*Frame) : 0.104
Stream size : 3.67 GiB (76%)
Title : [MINI Super-HQ]_The.King.of.Staten.Island.2020.1080p.BrRip.AC3.x264.THM.One2loadup.com
Language : English
Default : Yes
Forced : No

Audio #1
ID : 2
Format : AC-3
Format/Info : Audio Coding 3
Commercial name : Dolby Digital
Codec ID : A_AC3
Duration : 2 h 17 min
Bit rate mode : Constant
Bit rate : 384 kb/s
Channel(s) : 2 channels
Channel layout : L R
Sampling rate : 44.1 kHz
Frame rate : 28.711 FPS (1536 SPF)
Bit depth : 16 bits
Compression mode : Lossy
Stream size : 377 MiB (8%)
Title : Thai Master
Language : Thai
Service kind : Complete Main
Default : No
Forced : No

Audio #2
ID : 3
Format : DTS
Format/Info : Digital Theater Systems
Codec ID : A_DTS
Duration : 2 h 17 min
Bit rate mode : Constant
Bit rate : 755 kb/s
Channel(s) : 6 channels
Channel layout : C L R Ls Rs LFE
Sampling rate : 48.0 kHz
Frame rate : 93.750 FPS (512 SPF)
Bit depth : 24 bits
Compression mode : Lossy
Stream size : 741 MiB (15%)
Title : English DTS
Language : English
Default : No
Forced : No

Text #1
ID : 4
Format : VobSub
Codec ID : S_VOBSUB
Codec ID/Info : Picture based subtitle format used on DVDs
Title : Thai 720p
Language : Thai
Default : No
Forced : No

Text #2
ID : 5
Format : VobSub
Codec ID : S_VOBSUB
Codec ID/Info : Picture based subtitle format used on DVDs
Title : Thai 1080p
Language : Thai
Default : Yes
Forced : Yes

Text #3
ID : 6
Format : VobSub
Codec ID : S_VOBSUB
Codec ID/Info : Picture based subtitle format used on DVDs
Title : Thai 1080p Yellow
Language : Thai
Default : No
Forced : No

Text #4
ID : 7
Format : VobSub
Codec ID : S_VOBSUB
Codec ID/Info : Picture based subtitle format used on DVDs
Title : Thai 1080p Out
Language : Thai
Default : No
Forced : No

Text #5
ID : 8
Format : VobSub
Codec ID : S_VOBSUB
Codec ID/Info : Picture based subtitle format used on DVDs
Title : Thai 1080p BIG
Language : Thai
Default : No
Forced : No

Text #6
ID : 9
Format : VobSub
Codec ID : S_VOBSUB
Codec ID/Info : Picture based subtitle format used on DVDs
Title : Thai 1080p Out [BIG]
Language : Thai
Default : No
Forced : No

Text #7
ID : 10
Format : PGS
Codec ID : S_HDMV/PGS
Codec ID/Info : Picture based subtitle format used on BDs/HD-DVDs
Title : Thai PGS
Language : Thai
Default : No
Forced : No

Text #8
ID : 11
Format : PGS
Codec ID : S_HDMV/PGS
Codec ID/Info : Picture based subtitle format used on BDs/HD-DVDs
Title : Thai PGS Yellow
Language : Thai
Default : No
Forced : No

Text #9
ID : 12
Format : PGS
Codec ID : S_HDMV/PGS
Codec ID/Info : Picture based subtitle format used on BDs/HD-DVDs
Title : Thai PGS Out
Language : Thai
Default : No
Forced : No

Text #10
ID : 13
Format : PGS
Codec ID : S_HDMV/PGS
Codec ID/Info : Picture based subtitle format used on BDs/HD-DVDs
Title : English
Language : English
Default : No
Forced : No

Menu
00:00:00.000 : en:Chapter 01
00:07:59.771 : en:Chapter 02
00:15:21.796 : en:Chapter 03
00:21:31.665 : en:Chapter 04
00:30:29.953 : en:Chapter 05
00:35:49.773 : en:Chapter 06
00:43:32.276 : en:Chapter 07
00:51:07.439 : en:Chapter 08
00:58:17.452 : en:Chapter 09
01:06:46.669 : en:Chapter 10
01:11:39.921 : en:Chapter 11
01:16:35.925 : en:Chapter 12
01:21:36.934 : en:Chapter 13
01:29:12.097 : en:Chapter 14
01:34:21.865 : en:Chapter 15
01:41:33.296 : en:Chapter 16
01:46:17.246 : en:Chapter 17
01:56:30.233 : en:Chapter 18
02:04:11.027 : en:Chapter 19
02:11:48.859 : en:Chapter 20

DOWNLOAD


PART01 |||| PART02 |||| PART03 |||| PART04 |||| PART05

PART01 |||| PART02 |||| PART03 |||| PART04 |||| PART05

PART01 |||| PART02 |||| PART03 |||| PART04 |||| PART05

PART01 |||| PART02 |||| PART03 |||| PART04 |||| PART05

PART01 |||| PART02 |||| PART03 |||| PART04 |||| PART05



แจ้งหนังเสีย หรือโหลดไม่ได้ ทั้งลิ้งฟรีและ vip สามารถกดที่รูปด้านบนนี้ได้เลย

: Disable Comments
%d bloggers like this: