[MINI Super-HQ] The Guardians (2017) โคตรคนการ์เดี้ยน [1080p] [พากย์ไทย 5.1 + อังกฤษ 5.1] [บรรยายไทย + อังกฤษ] [เสียงไทย + ซับไทย] [ONE2UP]

2

The Guardians (2017) โคตรคนการ์เดี้ยน

โหลดหนัง The Guardians (2017) โคตรคนการ์เดี้ยน

Guardians (2017) 1h 29min | Action, Sci-Fi | 15 June 2017 (Netherlands) Summary: During the Cold War, an organization called "Patriot" created a super-hero squad, which includes members of multiple Soviet republics. For years, the heroes had to hide their identities, but in hard times they must show themselves again.
Countries: RussiaLanguages: Russian

เรื่องย่อ The Guardians (2017) โคตรคนการ์เดี้ยน

เป็นการเปิดมิติใหม่ให้กับหนังซุปเปอร์ฮีโร่ ที่โลกไม่เคยเห็นมาก่อน การรวมตัวของเหล่ายอดมนุษย์แดนหมีขาวที่รับรองว่ามันไม่แพ้ฮอลลีวู้ด เรื่องราวเกิดขึ้นช่วงสงครามมเย็น องค์กรลับที่เรียกตัวเองว่า แพทริออต จัดตั้งทีมซุปเปอร์ฮีโร่ขึ้นมาโดยการดัดแปลงดีเอ็นเอให้อาสาสมัครมีความสามารถเหนือมนุษย์ มีจุดประสงค์เพื่อให้พวกเขาปกป้องแผ่นดินมาตุภูมิ ทีมนี้มีสมาชิกจากจากหลายประเทศในสหภาพโซเวียต หลายปีที่พวกเขาต้องซ่อนอยู่อย่างลับๆ ไม่ให้ใครรู้ตัวตนแต่เมื่อสถานการณ์บีบบังคับทำให้พวกเขาต้องเผยตัวเพื่อลุกขึ้นสู้อีกครั้ง

Complete name : [MINI Super-HQ]_The.Guardians.2017.1080p.BluRay.x264.One2loadup.com.mkv
Format : Matroska
Format version : Version 4 / Version 2
File size : 4.54 GiB
Duration : 1 h 28 min
Overall bit rate : 7 312 kb/s
Movie name : [MINI Super-HQ]_The.Guardians.2017.1080p.BluRay.x264.One2loadup.com
Encoded date : UTC 2010-02-22 21:41:31
Writing application : mkvmerge v5.9.0 (‘On The Loose’) built on Dec 9 2012 15:37:01
Writing library : libebml v1.3.0 + libmatroska v1.4.0

Video
ID : 1
Format : AVC
Format/Info : Advanced Video Codec
Format profile : [email protected]
Format settings : CABAC / 5 Ref Frames
Format settings, CABAC : Yes
Format settings, ReFrames : 5 frames
Codec ID : V_MPEG4/ISO/AVC
Duration : 1 h 28 min
Bit rate : 6 387 kb/s
Width : 1 920 pixels
Height : 806 pixels
Display aspect ratio : 2.40:1
Frame rate mode : Constant
Frame rate : 24.000 FPS
Color space : YUV
Chroma subsampling : 4:2:0
Bit depth : 8 bits
Scan type : Progressive
Bits/(Pixel*Frame) : 0.172
Stream size : 3.90 GiB (86%)
Writing library : x264 core 146 r2538 121396c
Encoding settings : cabac=1 / ref=5 / deblock=1:-2:-2 / analyse=0x3:0x113 / me=umh / subme=10 / psy=1 / psy_rd=1.00:0.00 / mixed_ref=1 / me_range=32 / chroma_me=1 / trellis=2 / 8x8dct=1 / cqm=0 / deadzone=21,11 / fast_pskip=0 / chroma_qp_offset=-2 / threads=3 / lookahead_threads=1 / sliced_threads=0 / nr=0 / decimate=1 / interlaced=0 / bluray_compat=0 / constrained_intra=0 / bframes=8 / b_pyramid=2 / b_adapt=2 / b_bias=0 / direct=3 / weightb=1 / open_gop=0 / weightp=2 / keyint=250 / keyint_min=23 / scenecut=40 / intra_refresh=0 / rc=2pass / mbtree=0 / bitrate=6387 / ratetol=1.0 / qcomp=0.60 / qpmin=0 / qpmax=69 / qpstep=4 / cplxblur=20.0 / qblur=0.5 / ip_ratio=1.40 / pb_ratio=1.30 / aq=2:1.00
Default : Yes
Forced : No

Audio #1
ID : 2
Format : AC-3
Format/Info : Audio Coding 3
Codec ID : A_AC3
Duration : 1 h 28 min
Bit rate mode : Constant
Bit rate : 448 kb/s
Channel(s) : 6 channels
Channel positions : Front: L C R, Side: L R, LFE
Sampling rate : 48.0 kHz
Frame rate : 31.250 FPS (1536 SPF)
Bit depth : 16 bits
Compression mode : Lossy
Stream size : 285 MiB (6%)
Language : English
Service kind : Complete Main
Default : Yes
Forced : Yes

Audio #2
ID : 3
Format : AC-3
Format/Info : Audio Coding 3
Codec ID : A_AC3
Duration : 1 h 28 min
Bit rate mode : Constant
Bit rate : 448 kb/s
Channel(s) : 6 channels
Channel positions : Front: L C R, Side: L R, LFE
Sampling rate : 48.0 kHz
Frame rate : 31.250 FPS (1536 SPF)
Bit depth : 16 bits
Compression mode : Lossy
Stream size : 285 MiB (6%)
Language : Thai
Service kind : Complete Main
Default : No
Forced : No

Text #1
ID : 4
Format : VobSub
Codec ID : S_VOBSUB
Codec ID/Info : Picture based subtitle format used on DVDs
Language : Thai
Default : No
Forced : No

Text #2
ID : 5
Format : PGS
Codec ID : S_HDMV/PGS
Codec ID/Info : Picture based subtitle format used on BDs/HD-DVDs
Language : Thai
Default : Yes
Forced : Yes

Menu
00:00:00.000 : en:(01)00:00:00:000
00:00:52.208 : en:(02)00:00:52:208
00:10:50.416 : en:(03)00:10:50:416
00:21:24.375 : en:(04)00:21:24:375
00:33:35.750 : en:(05)00:33:35:750
00:44:08.208 : en:(06)00:44:08:208
00:55:49.083 : en:(07)00:55:49:083
01:06:44.416 : en:(08)01:06:44:416
01:17:46.833 : en:(09)01:17:46:833

DOWNLOAD


PART01 |||| PART02 |||| PART03 |||| PART04 |||| PART05

PART01 |||| PART02 |||| PART03 |||| PART04 |||| PART05

PART01 |||| PART02 |||| PART03 |||| PART04 |||| PART05

PART01 |||| PART02 |||| PART03 |||| PART04 |||| PART05


2 Comments
  1. LIm says

    ไฟล์3 4 5 ถูกลบไปหมดแล้วครับ

    1. Admin
      Admin says

      แก้ไขเรียบร้อยฮ๊ะ

Leave A Reply

Your email address will not be published.

%d bloggers like this: