[MINI Super-HQ] The Green Knight (2021) เดอะ กรีน ไนท์ [1080p] [AMAZON] [พากย์อังกฤษ 5.1] [Soundtrack บรรยายไทย + อังกฤษ] [เสียงอังกฤษ + ซับไทย] [DOSYAUPLOAD]

0

โหลดหนัง The Green Knight (2021) เดอะ กรีน ไนท์

The Green Knight 130min | Adventure, Drama, Fantasy | July 30, 2021 (United States) Summary: A fantasy re-telling of the medieval story of Sir Gawain and the Green Knight.
Countries: Ireland, Canada, United States, United KingdomLanguages: English

เรื่องย่อ The Green Knight (2021) เดอะ กรีน ไนท์

เรื่องราวของ กาเวน (เดฟ พาเทล) หลานชายผู้บ้าบิ่น และเอาแต่ใจของ คิงอาเธอร์ ที่ออกไปทำภารกิจ เผชิญหน้ากับ อัศวินมรกต (ราล์ฟ อีนสัน) ซึ่งเป็นบททดสอบสำคัญของเหล่าอัศวิน กาเวน เดินทางฟันฝ่าอุปสรรคนานา ต้องรับมือกับวิญญาณอาฆาต, ยักษ์, โจร เพื่อค้นหาตัวเอง และพิสูจน์คุณค่าของเขาต่อครอบครัวและอาณาจักร เขาพร้อมเดิมพันทุกอย่างเพื่อก้าวข้ามศึกสำคัญครั้งนี้ไม่เว้นแม้แต่ชีวิตของเขาเอง

Complete name : [MINI Super-HQ]_The.Green.Knight.2021.1080p.AMZN.WEB-DL.EAC3.x264.Subthai.One2loadup.com.mkv
Format : Matroska
Format version : Version 4
File size : 4.26 GiB
Duration : 2 h 9 min
Overall bit rate : 4 700 kb/s
Movie name : [MINI Super-HQ]_The.Green.Knight.2021.1080p.AMZN.WEB-DL.EAC3.x264.Subthai.One2loadup.com
Encoded date : UTC 2021-08-19 13:49:49
Writing application : mkvmerge v60.0.0 (‘Are We Copies?’) 64-bit
Writing library : libebml v1.4.2 + libmatroska v1.6.4

Video
ID : 1
Format : AVC
Format/Info : Advanced Video Codec
Format profile : [email protected]
Format settings : CABAC / 3 Ref Frames
Format settings, CABAC : Yes
Format settings, Reference : 3 frames
Codec ID : V_MPEG4/ISO/AVC
Duration : 2 h 9 min
Bit rate : 3 921 kb/s
Width : 1 920 pixels
Height : 1 040 pixels
Display aspect ratio : 1.85:1
Frame rate mode : Constant
Frame rate : 23.976 (24000/1001) FPS
Color space : YUV
Chroma subsampling : 4:2:0
Bit depth : 8 bits
Scan type : Progressive
Bits/(Pixel*Frame) : 0.082
Stream size : 3.55 GiB (83%)
Title : [MINI Super-HQ]_The.Green.Knight.2021.1080p.AMZN.WEB-DL.EAC3.x264.Subthai.One2loadup.com
Language : English
Default : Yes
Forced : No
Color range : Limited
Color primaries : BT.709
Transfer characteristics : BT.709
Matrix coefficients : BT.709

Audio
ID : 2
Format : E-AC-3 JOC
Format/Info : Enhanced AC-3 with Joint Object Coding
Commercial name : Dolby Digital Plus with Dolby Atmos
Codec ID : A_EAC3
Duration : 2 h 9 min
Bit rate mode : Constant
Bit rate : 768 kb/s
Channel(s) : 6 channels
Channel layout : L R C LFE Ls Rs
Sampling rate : 48.0 kHz
Frame rate : 31.250 FPS (1536 SPF)
Compression mode : Lossy
Delay relative to video : 12 ms
Stream size : 713 MiB (16%)
Title : E-AC3 Atmos English
Language : English
Service kind : Complete Main
Default : Yes
Forced : No
Complexity index : 16
Number of dynamic objects : 15
Bed channel count : 1 channel
Bed channel configuration : LFE

Text #1
ID : 3
Format : VobSub
Muxing mode : zlib
Codec ID : S_VOBSUB
Codec ID/Info : Picture based subtitle format used on DVDs
Duration : 2 h 4 min
Bit rate : 4 815 b/s
Count of elements : 780
Stream size : 4.28 MiB (0%)
Title : Sub Thai 1080p
Language : Thai
Default : No
Forced : No

Text #2
ID : 4
Format : UTF-8
Codec ID : S_TEXT/UTF8
Codec ID/Info : UTF-8 Plain Text
Duration : 2 h 4 min
Bit rate : 51 b/s
Count of elements : 780
Stream size : 46.7 KiB (0%)
Title : Sub Thai SRT
Language : Thai
Default : No
Forced : No

Text #3
ID : 5
Format : PGS
Muxing mode : zlib
Codec ID : S_HDMV/PGS
Codec ID/Info : Picture based subtitle format used on BDs/HD-DVDs
Duration : 2 h 4 min
Bit rate : 13.9 kb/s
Count of elements : 1560
Stream size : 12.3 MiB (0%)
Title : Sub Thai PGS
Language : Thai
Default : Yes
Forced : No

Text #4
ID : 6
Format : UTF-8
Codec ID : S_TEXT/UTF8
Codec ID/Info : UTF-8 Plain Text
Duration : 2 h 8 min
Bit rate : 31 b/s
Count of elements : 1238
Stream size : 29.6 KiB (0%)
Title : Sub English SRT
Language : English
Default : No
Forced : No

DOWNLOAD


PART01 |||| PART02 |||| PART03 |||| PART04 |||| PART05

PART01 |||| PART02 |||| PART03 |||| PART04 |||| PART05

PART01 |||| PART02 |||| PART03 |||| PART04 |||| PART05

PART01 |||| PART02 |||| PART03 |||| PART04 |||| PART05

PART01 |||| PART02 |||| PART03 |||| PART04 |||| PART05


Leave A Reply

อีเมล์ของคุณจะไม่แสดงให้เห็น Your email address will not be published.

%d bloggers like this: