[MINI Super-HQ] The Girl on the Train (2016) ปมหลอน รางมรณะ [1080p] [พากย์ไทย 2.0 + เสียงอังกฤษ DTS] [บรรยายไทย + อังกฤษ] [เสียงไทยมาสเตอร์ + ซับไทย] [USERLOAD]

0

โหลดหนัง The Girl on the Train (2016) ปมหลอน รางมรณะ

The Girl on the Train 112min | Crime, Drama, Mystery, Thriller | October 7, 2016 (United States) Summary: A divorcee becomes entangled in a missing persons investigation that promises to send shockwaves throughout her life.
Countries: United States, IndiaLanguages: English, Spanish

เรื่องย่อ The Girl on the Train (2016) ปมหลอน รางมรณะ

ราเชล (เอมิลี บลันท์) ผู้โศกเศร้ากับการหย่าร้างที่เพิ่งเกิดขึ้นหมาดๆ ได้ใช้ช่วงเวลาในการเดินทางประจำวันไปกับการจินตนาการเกี่ยวกับคู่รักที่ดูเหมือนจะเพอร์เฟ็กต์ ซึ่งอาศัยอยู่ในบ้านหลังหนึ่งที่รถไฟขบวนที่เธอนั่งแล่นผ่านทุกวัน จนกระทั่งเช้าวันหนึ่งเธอได้เห็นบางสิ่งที่น่าตกตะลึงเกิดขึ้นที่นั่นและถูกดึงเข้าไปพัวพันกับเรื่องลึกลับที่เกิดขึ้นสิ่งที่เธอเห็นในวันนั้นจะเปลี่ยนแปลงชีวิตของเธอไปตลอดกาล!!!

Complete name : [MINI Super-HQ]_The.Girl.on.the.Train.2016.1080p.BrRip.DTS.x264.THM.One2loadup.com.mkv
Format : Matroska
Format version : Version 4
File size : 4.86 GiB
Duration : 1 h 52 min
Overall bit rate : 6 202 kb/s
Movie name : [MINI Super-HQ]_The.Girl.on.the.Train.2016.1080p.BrRip.DTS.x264.THM.One2loadup.com
Encoded date : UTC 2021-10-11 00:50:30
Writing application : mkvmerge v61.0.0 (‘So’) 64-bit
Writing library : libebml v1.4.2 + libmatroska v1.6.4

Video
ID : 1
Format : AVC
Format/Info : Advanced Video Codec
Format profile : [email protected]
Format settings : CABAC / 4 Ref Frames
Format settings, CABAC : Yes
Format settings, Reference : 4 frames
Codec ID : V_MPEG4/ISO/AVC
Duration : 1 h 52 min
Bit rate : 5 199 kb/s
Width : 1 920 pixels
Height : 1 036 pixels
Display aspect ratio : 1.85:1
Frame rate mode : Constant
Frame rate : 23.976 FPS
Color space : YUV
Chroma subsampling : 4:2:0
Bit depth : 8 bits
Scan type : Progressive
Bits/(Pixel*Frame) : 0.109
Stream size : 4.07 GiB (84%)
Title : [MINI Super-HQ]_The.Girl.on.the.Train.2016.1080p.BrRip.DTS.x264.THM.One2loadup.com
Writing library : x264 core 146 r2538 121396c
Encoding settings : cabac=1 / ref=4 / deblock=1:-3:-3 / analyse=0x3:0x113 / me=umh / subme=11 / psy=1 / psy_rd=1.00:0.15 / mixed_ref=1 / me_range=48 / chroma_me=1 / trellis=2 / 8x8dct=1 / cqm=0 / deadzone=21,11 / fast_pskip=0 / chroma_qp_offset=-4 / threads=6 / lookahead_threads=1 / sliced_threads=0 / nr=0 / decimate=1 / interlaced=0 / bluray_compat=0 / constrained_intra=0 / bframes=8 / b_pyramid=2 / b_adapt=2 / b_bias=0 / direct=2 / weightb=1 / open_gop=0 / weightp=2 / keyint=250 / keyint_min=23 / scenecut=40 / intra_refresh=0 / rc_lookahead=50 / rc=2pass / mbtree=0 / bitrate=5199 / ratetol=1.0 / qcomp=0.60 / qpmin=0 / qpmax=69 / qpstep=4 / cplxblur=20.0 / qblur=0.5 / vbv_maxrate=14000 / vbv_bufsize=14000 / nal_hrd=none / filler=0 / ip_ratio=1.40 / pb_ratio=1.30 / aq=2:1.00
Language : English
Default : Yes
Forced : No
Color range : Limited
Color primaries : Generic film
Matrix coefficients : YCgCo

Audio #1
ID : 2
Format : AC-3
Format/Info : Audio Coding 3
Commercial name : Dolby Digital
Codec ID : A_AC3
Duration : 1 h 52 min
Bit rate mode : Constant
Bit rate : 224 kb/s
Channel(s) : 2 channels
Channel layout : L R
Sampling rate : 48.0 kHz
Frame rate : 31.250 FPS (1536 SPF)
Compression mode : Lossy
Stream size : 180 MiB (4%)
Language : Thai
Service kind : Complete Main
Default : Yes
Forced : No

Audio #2
ID : 3
Format : DTS
Format/Info : Digital Theater Systems
Codec ID : A_DTS
Duration : 1 h 52 min
Bit rate mode : Constant
Bit rate : 755 kb/s
Channel(s) : 6 channels
Channel layout : C L R Ls Rs LFE
Sampling rate : 48.0 kHz
Frame rate : 93.750 FPS (512 SPF)
Bit depth : 24 bits
Compression mode : Lossy
Stream size : 605 MiB (12%)
Title : English DTS
Language : English
Default : No
Forced : No

Text #1
ID : 4
Format : VobSub
Muxing mode : zlib
Codec ID : S_VOBSUB
Codec ID/Info : Picture based subtitle format used on DVDs
Duration : 1 h 51 min
Bit rate : 2 520 b/s
Count of elements : 1155
Stream size : 2.00 MiB (0%)
Title : Thai 480p
Language : Thai
Default : No
Forced : No

Text #2
ID : 5
Format : VobSub
Muxing mode : zlib
Codec ID : S_VOBSUB
Codec ID/Info : Picture based subtitle format used on DVDs
Duration : 1 h 51 min
Bit rate : 2 520 b/s
Count of elements : 1155
Stream size : 2.00 MiB (0%)
Title : Thai 720p
Language : Thai
Default : No
Forced : No

Text #3
ID : 6
Format : VobSub
Muxing mode : zlib
Codec ID : S_VOBSUB
Codec ID/Info : Picture based subtitle format used on DVDs
Duration : 1 h 51 min
Bit rate : 4 480 b/s
Count of elements : 1155
Stream size : 3.56 MiB (0%)
Title : Thai 1080p BluRay Master
Language : Thai
Default : Yes
Forced : Yes

Text #4
ID : 7
Format : VobSub
Muxing mode : zlib
Codec ID : S_VOBSUB
Codec ID/Info : Picture based subtitle format used on DVDs
Duration : 1 h 51 min
Bit rate : 6 216 b/s
Count of elements : 1155
Stream size : 4.94 MiB (0%)
Title : Thai 1080p BIG
Language : Thai
Default : No
Forced : No

Text #5
ID : 8
Format : PGS
Muxing mode : zlib
Codec ID : S_HDMV/PGS
Codec ID/Info : Picture based subtitle format used on BDs/HD-DVDs
Duration : 1 h 51 min
Bit rate : 18.4 kb/s
Count of elements : 2313
Stream size : 14.6 MiB (0%)
Title : Thai PGS BluRay Master
Language : Thai
Default : No
Forced : No

Text #6
ID : 9
Format : VobSub
Muxing mode : zlib
Codec ID : S_VOBSUB
Codec ID/Info : Picture based subtitle format used on DVDs
Duration : 1 h 45 min
Bit rate : 8 604 b/s
Count of elements : 1320
Stream size : 6.47 MiB (0%)
Title : English
Language : English
Default : No
Forced : No

Menu
00:00:00.000 : 00:00:00.000
00:04:55.128 : 00:04:55.128
00:11:38.531 : 00:11:38.531
00:17:30.007 : 00:17:30.007
00:23:07.469 : 00:23:07.469
00:29:35.816 : 00:29:35.816
00:35:21.953 : 00:35:21.953
00:42:35.678 : 00:42:35.678
00:49:51.822 : 00:49:51.822
00:55:14.186 : 00:55:14.186
00:59:26.062 : 00:59:26.062
01:05:48.027 : 01:05:48.027
01:10:52.957 : 01:10:52.957
01:13:14.724 : 01:13:14.724
01:22:34.032 : 01:22:34.032
01:31:42.956 : 01:31:42.956
01:42:29.101 : 01:42:29.101
01:51:31.018 : 01:51:31.018
02:01:29.324 : 02:01:29.324
02:07:08.621 : 02:07:08.621

DOWNLOAD


PART01 |||| PART02 |||| PART03 |||| PART04 |||| PART05

PART01 |||| PART02 |||| PART03 |||| PART04 |||| PART05

PART01 |||| PART02 |||| PART03 |||| PART04 |||| PART05

PART01 |||| PART02 |||| PART03 |||| PART04 |||| PART05

PART01 |||| PART02 |||| PART03 |||| PART04 |||| PART05


Leave A Reply

อีเมล์ของคุณจะไม่แสดงให้เห็น Your email address will not be published.

%d bloggers like this: