[MINI Super-HQ] The Forever Purge (2021) คืนอำมหิต: อำมหิตไม่หยุดฆ่า [1080p] [พากย์ไทย 5.1 + เสียงอังกฤษ DTS] [บรรยายไทย + อังกฤษ] [เสียงไทย + ซับไทย] [DOSYAUPLOAD]

0

โหลดหนัง The Forever Purge (2021) คืนอำมหิต: อำมหิตไม่หยุดฆ่า

The Forever Purge 103min | Action, Horror, Thriller | July 2, 2021 (United States) Summary: All the rules are broken as a sect of lawless marauders decides that the annual Purge does not stop at daybreak and instead should never end.
Countries: United States, MexicoLanguages: English

เรื่องย่อ The Forever Purge (2021) คืนอำมหิต: อำมหิตไม่หยุดฆ่า

หลังจากที่เจมส์ เดโมนาโก สร้างหนัง “The Purge” ออกมาตั้งแต่ปี 2013 ที่เล่าเรื่องของคืนอำมหิตในสหรัฐที่กำหนดให้หนึ่งคืนของทุกปีประชาชนสามารถก่ออาชญากรรมอะไรก็ได้โดยไม่มีความผิดรวมถึงการฆาตกรรมด้วยซึ่งกิจกรรมดังกล่าวเรียกว่าเดอะเพิร์จ ความสำเร็จของหนังที่ทำเงินรวมกันกว่า 450 ล้านเหรียญ จากทุนสร้างรวมกัน 35 ล้านเหรียญทำให้หนังสร้างภาคต่อออกมาจนถึง “The Forever Purge” ที่เป็นภาคห้าของภาพยนตร์ชุดนี้ที่จะเป็นภาคสุดท้ายแล้ว!

เรื่องราวของ “The Forever Purge” เริ่มต้นที่คู่รักชาวเม็กซิกันที่หนีการไล่ล่าของแก๊งค้ายาข้ามมาในฝั่งเท็กซัสของสหรัฐในวันที่มีกิจกรรมเดอะเพิร์จทั้งคู่ได้รับการช่วยเหลือจากชาวไร่ในเท็กซัสให้หลบซ่อนโดยหารู้ไม่ว่ามีกลุ่มกองโจรนิยมเดอะเพิร์จที่ไม่ ต้องการให้กิจกรรมฆ่าโหดจบสิ้นเมื่อถึงวันใหม่การไล่ฆ่าโหดตอนกลางวันแสกๆ จึงเกิดขึ้น!!!

Complete name : [MINI Super-HQ]_The.Forever.Purge.2021.1080p.BrRip.DTS.x264.One2loadup.com.mkv
Format : Matroska
Format version : Version 4
File size : 3.85 GiB
Duration : 1 h 43 min
Overall bit rate : 5 321 kb/s
Movie name : [MINI Super-HQ]_The.Forever.Purge.2021.1080p.BrRip.DTS.x264.One2loadup.com
Encoded date : UTC 2021-11-07 05:06:44
Writing application : mkvmerge v9.8.0 (‘Kuglblids’) 64bit
Writing library : libebml v1.3.4 + libmatroska v1.4.5

Video
ID : 1
Format : AVC
Format/Info : Advanced Video Codec
Format profile : [email protected]
Format settings : CABAC / 4 Ref Frames
Format settings, CABAC : Yes
Format settings, Reference : 4 frames
Codec ID : V_MPEG4/ISO/AVC
Duration : 1 h 43 min
Bit rate : 4 000 kb/s
Width : 1 920 pixels
Height : 1 040 pixels
Display aspect ratio : 1.85:1
Frame rate mode : Constant
Frame rate : 23.976 (24000/1001) FPS
Color space : YUV
Chroma subsampling : 4:2:0
Bit depth : 8 bits
Scan type : Progressive
Bits/(Pixel*Frame) : 0.084
Stream size : 2.89 GiB (75%)
Title : [MINI Super-HQ]_The.Forever.Purge.2021.1080p.BrRip.DTS.x264.One2loadup.com
Writing library : x264 core 146 r2538 121396c
Encoding settings : cabac=1 / ref=5 / deblock=1:-3:-3 / analyse=0x3:0x133 / me=tesa / subme=11 / psy=1 / psy_rd=1.00:0.15 / mixed_ref=1 / me_range=48 / chroma_me=1 / trellis=2 / 8x8dct=1 / cqm=0 / deadzone=21,11 / fast_pskip=1 / chroma_qp_offset=-3 / threads=54 / lookahead_threads=4 / sliced_threads=0 / nr=0 / decimate=1 / interlaced=0 / bluray_compat=1 / constrained_intra=0 / bframes=3 / b_pyramid=1 / b_adapt=2 / b_bias=0 / direct=3 / weightb=1 / open_gop=0 / weightp=1 / keyint=250 / keyint_min=1 / scenecut=40 / intra_refresh=0 / rc_lookahead=60 / rc=2pass / mbtree=1 / bitrate=4000 / ratetol=1.0 / qcomp=0.60 / qpmin=0 / qpmax=69 / qpstep=4 / cplxblur=20.0 / qblur=0.5 / ip_ratio=1.40 / aq=1:1.30
Language : English
Default : Yes
Forced : No

Audio #1
ID : 2
Format : AC-3
Format/Info : Audio Coding 3
Commercial name : Dolby Digital
Codec ID : A_AC3
Duration : 1 h 43 min
Bit rate mode : Constant
Bit rate : 448 kb/s
Channel(s) : 6 channels
Channel layout : L R C LFE Ls Rs
Sampling rate : 48.0 kHz
Frame rate : 31.250 FPS (1536 SPF)
Compression mode : Lossy
Stream size : 332 MiB (8%)
Title : Thai 5.1 Master
Language : Thai
Service kind : Complete Main
Default : Yes
Forced : Yes

Audio #2
ID : 3
Format : DTS
Format/Info : Digital Theater Systems
Codec ID : A_DTS
Duration : 1 h 43 min
Bit rate mode : Constant
Bit rate : 755 kb/s
Channel(s) : 6 channels
Channel layout : C L R Ls Rs LFE
Sampling rate : 48.0 kHz
Frame rate : 93.750 FPS (512 SPF)
Bit depth : 24 bits
Compression mode : Lossy
Stream size : 559 MiB (14%)
Title : English DTS-5.1
Language : English
Default : No
Forced : No

Text #1
ID : 4
Format : PGS
Codec ID : S_HDMV/PGS
Codec ID/Info : Picture based subtitle format used on BDs/HD-DVDs
Duration : 1 h 36 min
Bit rate : 33.4 kb/s
Count of elements : 1880
Stream size : 23.1 MiB (1%)
Title : Thai 1080p PGS
Language : Thai
Default : Yes
Forced : Yes

Text #2
ID : 5
Format : VobSub
Codec ID : S_VOBSUB
Codec ID/Info : Picture based subtitle format used on DVDs
Duration : 1 h 36 min
Bit rate : 8 017 b/s
Count of elements : 940
Stream size : 5.54 MiB (0%)
Title : Thai 1080p
Language : Thai
Default : No
Forced : No

Text #3
ID : 6
Format : PGS
Codec ID : S_HDMV/PGS
Codec ID/Info : Picture based subtitle format used on BDs/HD-DVDs
Duration : 1 h 36 min
Bit rate : 32.2 kb/s
Count of elements : 1880
Stream size : 22.3 MiB (1%)
Title : Thai 1080p Out PGS
Language : Thai
Default : No
Forced : No

Text #4
ID : 7
Format : VobSub
Codec ID : S_VOBSUB
Codec ID/Info : Picture based subtitle format used on DVDs
Duration : 1 h 36 min
Bit rate : 7 679 b/s
Count of elements : 940
Stream size : 5.31 MiB (0%)
Title : Thai 1080p Out
Language : Thai
Default : No
Forced : No

Text #5
ID : 8
Format : VobSub
Codec ID : S_VOBSUB
Codec ID/Info : Picture based subtitle format used on DVDs
Duration : 1 h 36 min
Bit rate : 10.9 kb/s
Count of elements : 940
Stream size : 7.54 MiB (0%)
Title : Thai 1080p Big [Yellow]
Language : Thai
Default : No
Forced : No

Text #6
ID : 9
Format : PGS
Codec ID : S_HDMV/PGS
Codec ID/Info : Picture based subtitle format used on BDs/HD-DVDs
Duration : 1 h 33 min
Bit rate : 38.8 kb/s
Count of elements : 2424
Stream size : 26.0 MiB (1%)
Title : English PGS
Language : English
Default : No
Forced : No

Text #7
ID : 10
Format : UTF-8
Codec ID : S_TEXT/UTF8
Codec ID/Info : UTF-8 Plain Text
Duration : 1 h 32 min
Bit rate : 47 b/s
Count of elements : 1042
Stream size : 32.5 KiB (0%)
Title : English SRT
Language : English
Default : No
Forced : No

Menu
00:00:00.000 : en:00:00:00.000
00:05:00.133 : en:00:05:00.133
00:11:22.765 : en:00:11:22.765
00:15:47.738 : en:00:15:47.738
00:20:21.262 : en:00:20:21.262
00:26:18.452 : en:00:26:18.452
00:29:37.776 : en:00:29:37.776
00:34:23.979 : en:00:34:23.979
00:36:27.602 : en:00:36:27.602
00:42:05.273 : en:00:42:05.273
00:47:02.653 : en:00:47:02.653
00:52:23.849 : en:00:52:23.849
00:56:46.361 : en:00:56:46.361
01:00:30.585 : en:01:00:30.585
01:05:46.317 : en:01:05:46.317
01:12:46.779 : en:01:12:46.779
01:18:42.217 : en:01:18:42.217
01:24:45.455 : en:01:24:45.455
01:29:51.886 : en:01:29:51.886
01:35:11.956 : en:01:35:11.956

DOWNLOAD


PART01 |||| PART02 |||| PART03 |||| PART04

PART01 |||| PART02 |||| PART03 |||| PART04

PART01 |||| PART02 |||| PART03 |||| PART04

PART01 |||| PART02 |||| PART03 |||| PART04

PART01 |||| PART02 |||| PART03 |||| PART04


Leave A Reply

อีเมล์ของคุณจะไม่แสดงให้เห็น Your email address will not be published.

%d bloggers like this: