[MINI Super-HQ] The Flu (2013) มหันตภัยไข้หวัดมฤตยู [1080p] [พากย์ไทย 2.0 + เสียงเกาหลี DTS] [บรรยายไทย + อังกฤษ] [เสียงไทยมาสเตอร์ + ซับไทย] [USERLOAD]

0

โหลดหนัง The Flu (2013) มหันตภัยไข้หวัดมฤตยู

Flu Action, Drama, Sci-Fi | August 15, 2013 (South Korea) Summary: Chaos ensues when a lethal, airborne virus infects the population of a South Korean city less than 20 kilometers from Seoul.
Countries: South KoreaLanguages: Korean, English, Filipino

เรื่องย่อ The Flu (2013) มหันตภัยไข้หวัดมฤตยู

ภาพยนตร์ภัยพิบัติของชาวเกาหลีใต้ เขียนบทและกำกับโดย “คิมซองซู” ว่าด้วยเรื่องราวของการระบาดไข้หวัดสายพันธุ์มรณะที่จะฆ่าเหยื่อภายใน 36 ชั่วโมง ส่งผลให้ประชากรเกือบ 5 แสนคน เกิดความหวาดกลัวกลายเป็นเหตุจลาจลย่อม ๆ ตัวละครหลักเป็นเจ้าหน้าที่กู้ภัยที่มีนิสัยบ้าบิ่น “คังจีกู” และคุณหมอสาวแสนสวย “คิมอินแฮ” โดยตัวเรื่องเล่าถึงแก๊งค์ค้ามนุษย์ข้ามชาติลักลอบนำแรงงานต่างด้าวข้ามฝั่งจากประเทศจีนมายังเกาหลีใต้ โดยซุกซ่อนอยู่ในตู้คอนเทนเนอร์แต่เพราะสาเหตุใดไม่ทราบแน่ชัดเหล่าแรงงานได้เสียชีวิตไปเกือบหมดเหลืออยู่เพียงเด็กหนุ่มที่ชื่อ “มงไซ” แน่นอนว่าเขาคือพาหะนำโรคไข้หวัดมรณะมาสู่คนโรคนี้แพร่ระบาดไปยังเมืองต่าง ๆ ในเกาหลี จนเกิดความโกลาหลไปทั่วทางรัฐจึงต้องปิดล้อมทั้งเมืองไว้ก่อนจะจัดการด้วยมาตรการขั้นเด็ดขาด!!!

Complete name : [MINI Super-HQ]_The.Flu.2013.1080p.BrRip.DTS.x264.THM.One2loadup.com.mkv
Format : Matroska
Format version : Version 4
File size : 4.51 GiB
Duration : 2 h 1 min
Overall bit rate : 5 296 kb/s
Movie name : [MINI Super-HQ]_The.Flu.2013.1080p.BrRip.DTS.x264.THM.One2loadup.com
Encoded date : UTC 2021-11-15 04:16:12
Writing application : mkvmerge v9.8.0 (‘Kuglblids’) 64bit
Writing library : libebml v1.3.4 + libmatroska v1.4.5

Video
ID : 1
Format : AVC
Format/Info : Advanced Video Codec
Format profile : [email protected]
Format settings : CABAC / 4 Ref Frames
Format settings, CABAC : Yes
Format settings, Reference : 4 frames
Codec ID : V_MPEG4/ISO/AVC
Duration : 2 h 1 min
Bit rate : 4 000 kb/s
Width : 1 920 pixels
Height : 816 pixels
Display aspect ratio : 2.35:1
Frame rate mode : Constant
Frame rate : 23.976 (24000/1001) FPS
Color space : YUV
Chroma subsampling : 4:2:0
Bit depth : 8 bits
Scan type : Progressive
Bits/(Pixel*Frame) : 0.106
Stream size : 3.40 GiB (75%)
Title : [MINI Super-HQ]_The.Flu.2013.1080p.BrRip.DTS.x264.THM.One2loadup.com
Writing library : x264 core 146 r2538 121396c
Encoding settings : cabac=1 / ref=5 / deblock=1:-3:-3 / analyse=0x3:0x133 / me=tesa / subme=11 / psy=1 / psy_rd=1.00:0.15 / mixed_ref=1 / me_range=48 / chroma_me=1 / trellis=2 / 8x8dct=1 / cqm=0 / deadzone=21,11 / fast_pskip=1 / chroma_qp_offset=-3 / threads=12 / lookahead_threads=1 / sliced_threads=0 / nr=0 / decimate=1 / interlaced=0 / bluray_compat=1 / constrained_intra=0 / bframes=3 / b_pyramid=1 / b_adapt=2 / b_bias=0 / direct=3 / weightb=1 / open_gop=0 / weightp=1 / keyint=250 / keyint_min=1 / scenecut=40 / intra_refresh=0 / rc_lookahead=60 / rc=2pass / mbtree=1 / bitrate=4000 / ratetol=1.0 / qcomp=0.60 / qpmin=0 / qpmax=69 / qpstep=4 / cplxblur=20.0 / qblur=0.5 / ip_ratio=1.40 / aq=1:1.30
Language : Korean
Default : Yes
Forced : No

Audio #1
ID : 2
Format : AC-3
Format/Info : Audio Coding 3
Commercial name : Dolby Digital
Codec ID : A_AC3
Duration : 2 h 1 min
Bit rate mode : Constant
Bit rate : 384 kb/s
Channel(s) : 2 channels
Channel layout : L R
Sampling rate : 48.0 kHz
Frame rate : 31.250 FPS (1536 SPF)
Compression mode : Lossy
Stream size : 335 MiB (7%)
Title : Thai Master
Language : Thai
Service kind : Complete Main
Default : Yes
Forced : Yes

Audio #2
ID : 3
Format : DTS
Format/Info : Digital Theater Systems
Codec ID : A_DTS
Duration : 2 h 1 min
Bit rate mode : Constant
Bit rate : 755 kb/s
Channel(s) : 6 channels
Channel layout : C L R Ls Rs LFE
Sampling rate : 48.0 kHz
Frame rate : 93.750 FPS (512 SPF)
Bit depth : 24 bits
Compression mode : Lossy
Stream size : 657 MiB (14%)
Title : Korean DTS-5.1
Language : Korean
Default : No
Forced : No

Text #1
ID : 4
Format : PGS
Codec ID : S_HDMV/PGS
Codec ID/Info : Picture based subtitle format used on BDs/HD-DVDs
Duration : 2 h 0 min
Bit rate : 42.5 kb/s
Count of elements : 3456
Stream size : 36.8 MiB (1%)
Title : Thai 1080p PGS
Language : Thai
Default : Yes
Forced : Yes

Text #2
ID : 5
Format : VobSub
Codec ID : S_VOBSUB
Codec ID/Info : Picture based subtitle format used on DVDs
Duration : 2 h 0 min
Bit rate : 10.1 kb/s
Count of elements : 1727
Stream size : 8.71 MiB (0%)
Title : Thai 1080p
Language : Thai
Default : No
Forced : No

Text #3
ID : 6
Format : PGS
Codec ID : S_HDMV/PGS
Codec ID/Info : Picture based subtitle format used on BDs/HD-DVDs
Duration : 2 h 0 min
Bit rate : 40.9 kb/s
Count of elements : 3456
Stream size : 35.4 MiB (1%)
Title : Thai 1080p Out PGS
Language : Thai
Default : No
Forced : No

Text #4
ID : 7
Format : VobSub
Codec ID : S_VOBSUB
Codec ID/Info : Picture based subtitle format used on DVDs
Duration : 2 h 0 min
Bit rate : 9 629 b/s
Count of elements : 1727
Stream size : 8.33 MiB (0%)
Title : Thai 1080p Out
Language : Thai
Default : No
Forced : No

Text #5
ID : 8
Format : VobSub
Codec ID : S_VOBSUB
Codec ID/Info : Picture based subtitle format used on DVDs
Duration : 2 h 0 min
Bit rate : 13.7 kb/s
Count of elements : 1727
Stream size : 11.8 MiB (0%)
Title : Thai 1080p Big [Yellow]
Language : Thai
Default : No
Forced : No

Text #6
ID : 9
Format : UTF-8
Codec ID : S_TEXT/UTF8
Codec ID/Info : UTF-8 Plain Text
Duration : 2 h 0 min
Bit rate : 52 b/s
Count of elements : 1586
Stream size : 46.3 KiB (0%)
Title : English SRT
Language : English
Default : No
Forced : No

Text #7
ID : 10
Format : PGS
Codec ID : S_HDMV/PGS
Codec ID/Info : Picture based subtitle format used on BDs/HD-DVDs
Duration : 2 h 0 min
Bit rate : 41.1 kb/s
Count of elements : 3161
Stream size : 35.5 MiB (1%)
Title : English PGS
Language : English
Default : No
Forced : No

DOWNLOAD


PART01 |||| PART02 |||| PART03 |||| PART04 |||| PART05

PART01 |||| PART02 |||| PART03 |||| PART04 |||| PART05

PART01 |||| PART02 |||| PART03 |||| PART04 |||| PART05

PART01 |||| PART02 |||| PART03 |||| PART04 |||| PART05

PART01 |||| PART02 |||| PART03 |||| PART04 |||| PART05


Leave A Reply

อีเมล์ของคุณจะไม่แสดงให้เห็น Your email address will not be published.

%d bloggers like this: