[MINI Super-HQ] The Father Who Moves Mountains (2021) ภูเขามิอาจกั้น [1080p] [NETFLIX] [พากย์โรมาเนีย 5.1 + เสียงอังกฤษ 5.1] [Soundtrack บรรยายไทย + อังกฤษ] [เสียงโรมาเนีย + ซับไทย] [USERLOAD]

0

โหลดหนัง The Father Who Moves Mountains (2021) ภูเขามิอาจกั้น 

The Father Who Moves Mountains 108min | Drama, Thriller | July 23, 2021 (Romania) Summary: Mircea, a retired intelligence officer, finds out that his son from has gone missing in the mountains. After days of searches, Mircea put his own rescue team together, leading to altercation... Read all
Countries: Romania, SwedenLanguages: Romanian

เรื่องย่อ The Father Who Moves Mountains (2021) ภูเขามิอาจกั้น

อดีตเจ้าหน้าที่หน่วยข่าวกรองขอเสี่ยงเดิมพันทุกสิ่ง เพื่อตามหาลูกชายที่หายตัวไประหว่างปีนขึ้นภูเขาหิมะ

Complete name : [MINI Super-HQ]_The.Father.Who.Moves.Mountains.2021.1080p.NF.WEB-DL.EAC3.x264.Subthai.One2loadup.com.mkv
Format : Matroska
Format version : Version 4
File size : 4.32 GiB
Duration : 1 h 49 min
Overall bit rate : 5 630 kb/s
Movie name : [MINI Super-HQ]_The.Father.Who.Moves.Mountains.2021.1080p.NF.WEB-DL.EAC3.x264.Subthai.One2loadup.com
Encoded date : UTC 2021-09-18 12:54:38
Writing application : mkvmerge v61.0.0 (‘So’) 64-bit
Writing library : libebml v1.4.2 + libmatroska v1.6.4

Video
ID : 1
Format : AVC
Format/Info : Advanced Video Codec
Format profile : [email protected]
Format settings : CABAC / 3 Ref Frames
Format settings, CABAC : Yes
Format settings, Reference : 3 frames
Codec ID : V_MPEG4/ISO/AVC
Duration : 1 h 49 min
Bit rate : 4 295 kb/s
Width : 1 920 pixels
Height : 912 pixels
Display aspect ratio : 2.105
Frame rate mode : Constant
Frame rate : 24.000 FPS
Color space : YUV
Chroma subsampling : 4:2:0
Bit depth : 8 bits
Scan type : Progressive
Bits/(Pixel*Frame) : 0.102
Stream size : 3.29 GiB (76%)
Title : [MINI Super-HQ]_The.Father.Who.Moves.Mountains.2021.1080p.NF.WEB-DL.EAC3.x264.Subthai.One2loadup.com
Language : Romanian
Default : Yes
Forced : No

Audio #1
ID : 2
Format : E-AC-3
Format/Info : Enhanced AC-3
Commercial name : Dolby Digital Plus
Codec ID : A_EAC3
Duration : 1 h 49 min
Bit rate mode : Constant
Bit rate : 640 kb/s
Channel(s) : 6 channels
Channel layout : L R C LFE Ls Rs
Sampling rate : 48.0 kHz
Frame rate : 31.250 FPS (1536 SPF)
Compression mode : Lossy
Stream size : 503 MiB (11%)
Title : E-AC3 Romanian
Language : Romanian
Service kind : Complete Main
Default : Yes
Forced : No

Audio #2
ID : 3
Format : E-AC-3
Format/Info : Enhanced AC-3
Commercial name : Dolby Digital Plus
Codec ID : A_EAC3
Duration : 1 h 49 min
Bit rate mode : Constant
Bit rate : 640 kb/s
Channel(s) : 6 channels
Channel layout : L R C LFE Ls Rs
Sampling rate : 48.0 kHz
Frame rate : 31.250 FPS (1536 SPF)
Compression mode : Lossy
Stream size : 503 MiB (11%)
Title : E-AC3 English
Language : English
Service kind : Complete Main
Default : No
Forced : No

Text #1
ID : 4
Format : VobSub
Muxing mode : zlib
Codec ID : S_VOBSUB
Codec ID/Info : Picture based subtitle format used on DVDs
Duration : 1 h 48 min
Bit rate : 10.2 kb/s
Count of elements : 1074
Stream size : 7.98 MiB (0%)
Title : Sub Thai 1080p
Language : Thai
Default : No
Forced : No

Text #2
ID : 5
Format : UTF-8
Codec ID : S_TEXT/UTF8
Codec ID/Info : UTF-8 Plain Text
Duration : 1 h 48 min
Bit rate : 104 b/s
Count of elements : 1074
Stream size : 83.0 KiB (0%)
Title : Sub Thai SRT
Language : Thai
Default : No
Forced : No

Text #3
ID : 6
Format : PGS
Muxing mode : zlib
Codec ID : S_HDMV/PGS
Codec ID/Info : Picture based subtitle format used on BDs/HD-DVDs
Duration : 1 h 48 min
Bit rate : 28.3 kb/s
Count of elements : 2148
Stream size : 22.1 MiB (0%)
Title : Sub Thai PGS
Language : Thai
Default : No
Forced : No

Text #4
ID : 7
Format : PGS
Muxing mode : zlib
Codec ID : S_HDMV/PGS
Codec ID/Info : Picture based subtitle format used on BDs/HD-DVDs
Duration : 1 h 48 min
Bit rate : 49.5 kb/s
Count of elements : 2148
Stream size : 38.5 MiB (1%)
Title : Sub Thai PGS NETFLIX
Language : Thai
Default : Yes
Forced : No

Text #5
ID : 8
Format : UTF-8
Codec ID : S_TEXT/UTF8
Codec ID/Info : UTF-8 Plain Text
Duration : 1 h 43 min
Bit rate : 44 b/s
Count of elements : 1073
Stream size : 34.0 KiB (0%)
Title : Sub English SRT
Language : English
Default : No
Forced : No

DOWNLOAD


PART01 |||| PART02 |||| PART03 |||| PART04 |||| PART05

PART01 |||| PART02 |||| PART03 |||| PART04 |||| PART05

PART01 |||| PART02 |||| PART03 |||| PART04 |||| PART05

PART01 |||| PART02 |||| PART03 |||| PART04 |||| PART05

PART01 |||| PART02 |||| PART03 |||| PART04 |||| PART05


Leave A Reply

อีเมล์ของคุณจะไม่แสดงให้เห็น Your email address will not be published.

%d bloggers like this: