[MINI Super-HQ] The Conjuring: The Devil Made Me Do It (2021) เดอะ คอนเจอริ่ง คนเรียกผี 3 มัจจุราชบงการ [1080p] [พากย์ไทย 5.1 + เสียงอังกฤษ DTS] [บรรยายไทย + อังกฤษ] [เสียงไทย + ซับไทย] [DOSYAUPLOAD]

0

โหลดหนัง The Conjuring: The Devil Made Me Do It (2021) เดอะ คอนเจอริ่ง คนเรียกผี 3 มัจจุราชบงการ

The Conjuring: The Devil Made Me Do It 112min | Horror, Mystery, Thriller | June 4, 2021 (United States) Summary: The Warrens investigate a murder that may be linked to a demonic possession.
Countries: United States, United KingdomLanguages: English, Latin

เรื่องย่อ The Conjuring: The Devil Made Me Do It (2021) เดอะ คอนเจอริ่ง คนเรียกผี 3 มัจจุราชบงการ

เรื่องราวของความหวาดกลัว เหตุฆาตกรรมและปีศาจที่ไม่มีใครรู้จักขนาดคนเรียกผีตัวจริงเสียงจริงอย่าง เอ๊ด และ ลอร์เรน วอร์เรน ยังตกตะลึงอ้างอิงจากหนึ่งในแฟ้มคดีที่สะเทือนขวัญที่สุดของพวกเขาเริ่มต้นจากการต้องต่อสู้เพื่อจิตวิญญาณของชายหนุ่ม ก่อนจะได้ไปพบกับสิ่งที่เหนือกว่าที่พวกเขาเคยเจอมาและกลายเป็นครั้งแรกในประวัติศาสตร์ของสหรัฐอเมริกาที่ฆาตกรอ้างเหตุผลการฆาตกรรมของเขาว่าผู้อยู่เบื้องหลังคือปีศาจมัจจุราช!!!

Complete name : [MINI Super-HQ]_The.Conjuring.The.Devil.Made.Me.Do.It.2021.1080p.BrRip.DTS.One2loadup.com.mkv
Format : Matroska
Format version : Version 4
File size : 3.75 GiB
Duration : 1 h 51 min
Overall bit rate : 4 797 kb/s
Movie name : [MINI Super-HQ]_The.Conjuring.The.Devil.Made.Me.Do.It.2021.1080p.BrRip.DTS.One2loadup.com
Encoded date : UTC 2021-09-03 13:17:58
Writing application : mkvmerge v9.8.0 (‘Kuglblids’) 64bit
Writing library : libebml v1.3.4 + libmatroska v1.4.5

Video
ID : 1
Format : AVC
Format/Info : Advanced Video Codec
Format profile : [email protected]
Format settings : CABAC / 4 Ref Frames
Format settings, CABAC : Yes
Format settings, Reference : 4 frames
Codec ID : V_MPEG4/ISO/AVC
Duration : 1 h 51 min
Bit rate : 3 499 kb/s
Width : 1 920 pixels
Height : 802 pixels
Display aspect ratio : 2.40:1
Frame rate mode : Constant
Frame rate : 23.976 (24000/1001) FPS
Color space : YUV
Chroma subsampling : 4:2:0
Bit depth : 8 bits
Scan type : Progressive
Bits/(Pixel*Frame) : 0.095
Stream size : 2.74 GiB (73%)
Title : [MINI Super-HQ]_The.Conjuring.The.Devil.Made.Me.Do.It.2021.1080p.BrRip.DTS.One2loadup.com
Writing library : x264 core 146 r2538 121396c
Encoding settings : cabac=1 / ref=5 / deblock=1:-3:-3 / analyse=0x3:0x133 / me=tesa / subme=11 / psy=1 / psy_rd=1.00:0.15 / mixed_ref=1 / me_range=48 / chroma_me=1 / trellis=2 / 8x8dct=1 / cqm=0 / deadzone=21,11 / fast_pskip=1 / chroma_qp_offset=-3 / threads=54 / lookahead_threads=4 / sliced_threads=0 / nr=0 / decimate=1 / interlaced=0 / bluray_compat=1 / constrained_intra=0 / bframes=3 / b_pyramid=1 / b_adapt=2 / b_bias=0 / direct=3 / weightb=1 / open_gop=0 / weightp=1 / keyint=250 / keyint_min=1 / scenecut=40 / intra_refresh=0 / rc_lookahead=60 / rc=2pass / mbtree=1 / bitrate=3499 / ratetol=1.0 / qcomp=0.60 / qpmin=0 / qpmax=69 / qpstep=4 / cplxblur=20.0 / qblur=0.5 / ip_ratio=1.40 / aq=1:1.30
Language : English
Default : Yes
Forced : No

Audio #1
ID : 2
Format : AC-3
Format/Info : Audio Coding 3
Commercial name : Dolby Digital
Codec ID : A_AC3
Duration : 1 h 51 min
Bit rate mode : Constant
Bit rate : 448 kb/s
Channel(s) : 6 channels
Channel layout : L R C LFE Ls Rs
Sampling rate : 48.0 kHz
Frame rate : 31.250 FPS (1536 SPF)
Compression mode : Lossy
Stream size : 359 MiB (9%)
Title : Thai 5.1 Master
Language : Thai
Service kind : Complete Main
Default : Yes
Forced : Yes

Audio #2
ID : 3
Format : DTS
Format/Info : Digital Theater Systems
Codec ID : A_DTS
Duration : 1 h 51 min
Bit rate mode : Constant
Bit rate : 755 kb/s
Channel(s) : 6 channels
Channel layout : C L R Ls Rs LFE
Sampling rate : 48.0 kHz
Frame rate : 93.750 FPS (512 SPF)
Bit depth : 24 bits
Compression mode : Lossy
Stream size : 604 MiB (16%)
Title : English DTS-5.1
Language : English
Default : No
Forced : Yes

Text #1
ID : 4
Format : PGS
Codec ID : S_HDMV/PGS
Codec ID/Info : Picture based subtitle format used on BDs/HD-DVDs
Duration : 1 h 51 min
Bit rate : 27.0 kb/s
Count of elements : 1996
Stream size : 21.6 MiB (1%)
Title : Thai 1080p PGS
Language : Thai
Default : Yes
Forced : Yes

Text #2
ID : 5
Format : VobSub
Codec ID : S_VOBSUB
Codec ID/Info : Picture based subtitle format used on DVDs
Duration : 1 h 51 min
Bit rate : 6 406 b/s
Count of elements : 997
Stream size : 5.12 MiB (0%)
Title : Thai 1080p
Language : Thai
Default : No
Forced : No

Text #3
ID : 6
Format : PGS
Codec ID : S_HDMV/PGS
Codec ID/Info : Picture based subtitle format used on BDs/HD-DVDs
Duration : 1 h 51 min
Bit rate : 26.0 kb/s
Count of elements : 1996
Stream size : 20.8 MiB (1%)
Title : Thai 1080p Out PGS
Language : Thai
Default : No
Forced : No

Text #4
ID : 7
Format : VobSub
Codec ID : S_VOBSUB
Codec ID/Info : Picture based subtitle format used on DVDs
Duration : 1 h 51 min
Bit rate : 6 133 b/s
Count of elements : 997
Stream size : 4.90 MiB (0%)
Title : Thai 1080p Out
Language : Thai
Default : No
Forced : No

Text #5
ID : 8
Format : PGS
Codec ID : S_HDMV/PGS
Codec ID/Info : Picture based subtitle format used on BDs/HD-DVDs
Duration : 1 h 45 min
Bit rate : 28.1 kb/s
Count of elements : 2552
Stream size : 21.3 MiB (1%)
Title : English PGS
Language : English
Default : No
Forced : No

Text #6
ID : 9
Format : UTF-8
Codec ID : S_TEXT/UTF8
Codec ID/Info : UTF-8 Plain Text
Duration : 1 h 45 min
Bit rate : 40 b/s
Count of elements : 1001
Stream size : 31.8 KiB (0%)
Title : English SRT
Language : English
Default : No
Forced : No

Menu
00:00:00.000 : en:00:00:00.000
00:11:09.502 : en:00:11:09.502
00:20:04.286 : en:00:20:04.286
00:30:26.074 : en:00:30:26.074
00:39:40.253 : en:00:39:40.253
00:50:33.572 : en:00:50:33.572
01:00:03.683 : en:01:00:03.683
01:11:42.089 : en:01:11:42.089
01:19:42.778 : en:01:19:42.778
01:31:43.998 : en:01:31:43.998
01:40:57.301 : en:01:40:57.301

DOWNLOAD


PART01 |||| PART02 |||| PART03 |||| PART04

PART01 |||| PART02 |||| PART03 |||| PART04

PART01 |||| PART02 |||| PART03 |||| PART04

PART01 |||| PART02 |||| PART03 |||| PART04

PART01 |||| PART02 |||| PART03 |||| PART04


Leave A Reply

อีเมล์ของคุณจะไม่แสดงให้เห็น Your email address will not be published.

%d bloggers like this: