[MINI Super-HQ] The Circle (2017) เดอะ เซอร์เคิล [1080p] [พากย์ไทย 5.1 + เสียงอังกฤษ 5.1] [บรรยายอังกฤษ] [เสียงไทย + ซับอังกฤษ] [PANDAFILE]

2

โหลดหนัง The Circle (2017) เดอะ เซอร์เคิล

The Circle (2017) 1h 50min | Drama, Sci-Fi, Thriller | 11 May 2017 (Netherlands) Summary: A woman lands a dream job at a powerful tech company called the Circle, only to uncover an agenda that will affect the lives of all of humanity.
Countries: United Arab Emirates, USALanguages: English

เรื่องย่อ The Circle (2017) เดอะ เซอร์เคิล

จะเกิดอะไรขึ้น ถ้าเราแชร์ทุกอย่างที่เกี่ยวกับชีวิตของเราบนโลกอินเตอร์เน็ต ถ้าทุกคนแบ่งปันทุกข้อมูล ทุกความเป็นส่วนตัวลงไปในโลกอินเตอร์เน็ตหนังเรื่อง The Circle นำเสนอเหตุการณ์ที่แย่ที่สุดที่อาจเกิดขึ้นถ้าคุณทำแบบนั้นหนังดัดแปลงจากนิยายขายดีของเดฟ เอ็กเกอร์ กำกับและดัดแปลงบทโดยเจมส์ พอนโซลด์ ที่ดังจาก The Spectacular Now ทอม แฮงก์, เอ็มมา วัตสัน, จอห์น โบเยกา, แคเรน กิลเลียน และ แพตตัน ออสวอลท์ นำแสดง วัตสันรับบทเป็นเมฮอลแลนด์ พนักงานบริษัทด้านสื่อสังคมออนไลน์และเทคโนโลยีใหญ่สุดของโลกที่ชื่อว่า The Circle ซึ่งก่อตั้งโดยเบลี่ ตัวละครของแฮงก์ ผู้ซึ่งชักจูงให้เธอใช้ชีวิตออนไลน์แบบเปิดเผยหมดทุกอย่าง แต่คนเราจะปลอดภัยได้ยังไงในเมื่อมีคนอื่นเฝ้าดูชีวิตเราตลอดเวลา แล้วเรื่องราวก็เข้าสู่เหตุการณ์เขย่าขวัญที่นำเสนอส่วนร้ายของโลกยุคดิจิตอลเมื่อข้อมูลของทุกคนถูกเก็บถูกกรองและถูกนำไปใช้ประโยชน์ต่างๆ

Complete name : [MINI Super-HQ]_The.Circle.2017.1080p.BRRip.AC3.One2loadup.com.mkv
Format : Matroska
Format version : Version 4
File size : 3.46 GiB
Duration : 1 h 49 min
Overall bit rate : 4 516 kb/s
Movie name : [MINI Super-HQ]_The.Circle.2017.1080p.BRRip.AC3.One2loadup.com
Encoded date : UTC 2018-06-05 09:01:54
Writing application : mkvmerge v18.0.0 (‘Apricity’) 64-bit
Writing library : libebml v1.3.5 + libmatroska v1.4.8

Video
ID : 1
Format : AVC
Format/Info : Advanced Video Codec
Format profile : [email protected]
Format settings : CABAC / 5 Ref Frames
Format settings, CABAC : Yes
Format settings, ReFrames : 5 frames
Codec ID : V_MPEG4/ISO/AVC
Duration : 1 h 49 min
Bit rate : 3 500 kb/s
Width : 1 920 pixels
Height : 800 pixels
Display aspect ratio : 2.40:1
Frame rate mode : Constant
Frame rate : 23.976 (24000/1001) FPS
Color space : YUV
Chroma subsampling : 4:2:0
Bit depth : 8 bits
Scan type : Progressive
Bits/(Pixel*Frame) : 0.095
Stream size : 2.68 GiB (77%)
Title : [MINI Super-HQ]_The.Circle.2017.1080p.BRRip.AC3.One2loadup.com
Writing library : x264 core 148 r2708 86b7198
Encoding settings : cabac=1 / ref=5 / deblock=1:0:0 / analyse=0x3:0x133 / me=umh / subme=9 / psy=1 / psy_rd=1.00:0.00 / mixed_ref=1 / me_range=16 / chroma_me=1 / trellis=2 / 8x8dct=1 / cqm=0 / deadzone=21,11 / fast_pskip=0 / chroma_qp_offset=-2 / threads=12 / lookahead_threads=1 / sliced_threads=0 / nr=0 / decimate=1 / interlaced=0 / bluray_compat=0 / constrained_intra=0 / bframes=3 / b_pyramid=2 / b_adapt=2 / b_bias=0 / direct=3 / weightb=1 / open_gop=0 / weightp=2 / keyint=240 / keyint_min=24 / scenecut=40 / intra_refresh=0 / rc_lookahead=60 / rc=2pass / mbtree=1 / bitrate=3500 / ratetol=1.0 / qcomp=0.60 / qpmin=0 / qpmax=69 / qpstep=4 / cplxblur=20.0 / qblur=0.5 / vbv_maxrate=62500 / vbv_bufsize=78125 / nal_hrd=none / filler=0 / ip_ratio=1.40 / aq=1:1.00
Language : English
Default : Yes
Forced : No
Color range : Limited
Color primaries : BT.709
Transfer characteristics : BT.709
Matrix coefficients : BT.709

Audio #1
ID : 2
Format : AC-3
Format/Info : Audio Coding 3
Commercial name : Dolby Digital
Codec ID : A_AC3
Duration : 1 h 49 min
Bit rate mode : Constant
Bit rate : 640 kb/s
Channel(s) : 6 channels
Channel layout : L R C LFE Ls Rs
Sampling rate : 48.0 kHz
Frame rate : 31.250 FPS (1536 SPF)
Bit depth : 16 bits
Compression mode : Lossy
Delay relative to video : -21 ms
Stream size : 503 MiB (14%)
Title : Thai
Language : Thai
Service kind : Complete Main
Default : Yes
Forced : Yes

Audio #2
ID : 3
Format : AAC LC
Format/Info : Advanced Audio Codec Low Complexity
Codec ID : A_AAC-2
Duration : 1 h 49 min
Bit rate : 384 kb/s
Channel(s) : 6 channels
Channel layout : C L R Ls Rs LFE
Sampling rate : 48.0 kHz
Frame rate : 46.875 FPS (1024 SPF)
Compression mode : Lossy
Delay relative to video : -21 ms
Stream size : 301 MiB (8%)
Title : Eng
Language : English
Default : No
Forced : No

Text
ID : 4
Format : ASS
Codec ID : S_TEXT/ASS
Codec ID/Info : Advanced Sub Station Alpha
Duration : 1 h 46 min
Bit rate : 111 b/s
Count of elements : 1483
Compression mode : Lossless
Stream size : 86.3 KiB (0%)
Title : Eng
Language : English
Default : No
Forced : No

DOWNLOAD


PART01 |||| PART02 |||| PART03 |||| PART04

PART01 |||| PART02 |||| PART03 |||| PART04

PART01 |||| PART02 |||| PART03 |||| PART04

PART01 |||| PART02 |||| PART03 |||| PART04


2 Comments
  1. ha says

    ลิงค์เสียหมดแล้ว ช่วยอัพใหม่ได้มั้ยครับ ขอบคุณครับ

    1. Admin
      Admin says

      แก้ไขเรียบร้อยฮ๊ะ


Disable Comments
%d bloggers like this: