[MINI Super-HQ] Texas Chainsaw (2013) สิงหาต้องสับ [1080p] [พากย์ไทย 5.1 + เสียงอังกฤษ DTS] [บรรยายไทย + อังกฤษ] [เสียงไทย + ซับไทย] [PANDAFILE]

4

โหลดหนัง Texas Chainsaw (2013) สิงหาต้องสับ

Texas Chainsaw | January 4, 2013 (United States) Summary: A young woman travels to Texas to collect an inheritance; little does she know that an encounter with a chainsaw-wielding killer is part of the reward.
Countries: United StatesLanguages: English

เรื่องย่อ Texas Chainsaw (2013) สิงหาต้องสับ

ลืมหนังสองภาคที่ผ่านมาในศตวรรษที่ 21 ไปได้เลย เพราะนี่คือผลงานภาคต่อของ “สิงหาสับ” เวอร์ชั่นปี 1974 ตัวจริงเสียงจริง!! เรื่องราวของภาคนี้เกิดขึ้นต่อจากเหตุการณ์สุดสยองในปี 1974 เมื่อ เฮทเธอร์ มิลเลอร์ (อเล็กซานดร้า แดดดาริโอ้) หญิงสาวที่เดินทางไปยังบ้านในรัฐเท็กซัส ที่เธอได้รับเป็นมรดก แต่หารู้ไม่ว่าเธอกับเพื่อนๆที่ไปด้วยกัน ต้องเผชิญหน้ากับ “เลทเธอร์เฟซ” ฆาตกรจอมเลื่้อยสุดโหด ที่ยังอาศัยอยู่ในบ้านหลังนี้ !! ซึ่งพวกเธอและเขา จะต้องหนีรอดจากฆาตรกรให้ได้

Complete name : [MINI Super-HQ]_Texas.Chainsaw.2013.1080p.DTS.x264.One2loadup.com.mkv
Format : Matroska
Format version : Version 4 / Version 2
File size : 3.96 GiB
Duration : 1 h 32 min
Overall bit rate : 6 126 kb/s
Movie name : [MINI Super-HQ]_Texas.Chainsaw.2013.1080p.DTS.x264.One2loadup.com
Encoded date : UTC 2015-06-08 02:16:05
Writing application : mkvmerge v7.8.0 (‘River Man’) 32bit built on Mar 27 2015 16:18:02
Writing library : libebml v1.3.1 + libmatroska v1.4.2
Cover : Yes
Attachments : cover_land.png / cover.png

Video
ID : 1
Format : AVC
Format/Info : Advanced Video Codec
Format profile : [email protected]
Format settings : CABAC / 5 Ref Frames
Format settings, CABAC : Yes
Format settings, ReFrames : 5 frames
Codec ID : V_MPEG4/ISO/AVC
Duration : 1 h 32 min
Bit rate : 4 857 kb/s
Width : 1 920 pixels
Height : 800 pixels
Display aspect ratio : 2.40:1
Frame rate mode : Constant
Frame rate : 23.976 (24000/1001) FPS
Color space : YUV
Chroma subsampling : 4:2:0
Bit depth : 8 bits
Scan type : Progressive
Bits/(Pixel*Frame) : 0.132
Stream size : 3.10 GiB (78%)
Title : [MINI Super-HQ]_Texas.Chainsaw.2013.1080p.DTS.x264.One2loadup.com
Writing library : x264 core 146 r2538 121396c
Encoding settings : cabac=1 / ref=5 / deblock=1:-3:-3 / analyse=0x3:0x113 / me=umh / subme=11 / psy=1 / psy_rd=1.00:0.20 / mixed_ref=1 / me_range=48 / chroma_me=1 / trellis=2 / 8x8dct=1 / cqm=0 / deadzone=21,11 / fast_pskip=0 / chroma_qp_offset=-3 / threads=24 / lookahead_threads=2 / sliced_threads=0 / nr=0 / decimate=1 / interlaced=0 / bluray_compat=0 / constrained_intra=0 / bframes=5 / b_pyramid=2 / b_adapt=2 / b_bias=0 / direct=3 / weightb=1 / open_gop=0 / weightp=2 / keyint=250 / keyint_min=23 / scenecut=40 / intra_refresh=0 / rc_lookahead=100 / rc=2pass / mbtree=1 / bitrate=4857 / ratetol=1.0 / qcomp=0.60 / qpmin=0 / qpmax=69 / qpstep=4 / cplxblur=20.0 / qblur=0.5 / vbv_maxrate=99999 / vbv_bufsize=99999 / nal_hrd=none / filler=0 / ip_ratio=1.40 / aq=1:1.00
Language : English
Default : Yes
Forced : No

Audio #1
ID : 2
Format : AC-3
Format/Info : Audio Coding 3
Codec ID : A_AC3
Duration : 1 h 32 min
Bit rate mode : Constant
Bit rate : 448 kb/s
Channel(s) : 6 channels
Channel positions : Front: L C R, Side: L R, LFE
Sampling rate : 48.0 kHz
Frame rate : 31.250 FPS (1536 SPF)
Bit depth : 16 bits
Compression mode : Lossy
Stream size : 296 MiB (7%)
Title : AC3
Language : Thai
Service kind : Complete Main
Default : Yes
Forced : Yes

Audio #2
ID : 3
Format : DTS
Format/Info : Digital Theater Systems
Codec ID : A_DTS
Duration : 1 h 32 min
Bit rate mode : Constant
Bit rate : 755 kb/s
Channel(s) : 6 channels
Channel positions : Front: L C R, Side: L R, LFE
Sampling rate : 48.0 kHz
Frame rate : 93.750 FPS (512 SPF)
Bit depth : 24 bits
Compression mode : Lossy
Stream size : 499 MiB (12%)
Title : DTS
Language : English
Default : No
Forced : No

Text #1
ID : 4
Format : VobSub
Codec ID : S_VOBSUB
Codec ID/Info : Picture based subtitle format used on DVDs
Title : 1080P TSA
Language : Thai
Default : Yes
Forced : Yes

Text #2
ID : 5
Format : VobSub
Codec ID : S_VOBSUB
Codec ID/Info : Picture based subtitle format used on DVDs
Title : 1080P TSA YELLOW
Language : Thai
Default : No
Forced : No

Text #3
ID : 6
Format : VobSub
Codec ID : S_VOBSUB
Codec ID/Info : Picture based subtitle format used on DVDs
Title : 1080P AS
Language : Thai
Default : No
Forced : No

Text #4
ID : 7
Format : VobSub
Codec ID : S_VOBSUB
Codec ID/Info : Picture based subtitle format used on DVDs
Title : 480P AS
Language : Thai
Default : No
Forced : No

Text #5
ID : 8
Format : PGS
Codec ID : S_HDMV/PGS
Codec ID/Info : Picture based subtitle format used on BDs/HD-DVDs
Title : TSA
Language : Thai
Default : No
Forced : No

Text #6
ID : 9
Format : PGS
Codec ID : S_HDMV/PGS
Codec ID/Info : Picture based subtitle format used on BDs/HD-DVDs
Title : TSA UNDER
Language : Thai
Default : No
Forced : No

Text #7
ID : 10
Format : PGS
Codec ID : S_HDMV/PGS
Codec ID/Info : Picture based subtitle format used on BDs/HD-DVDs
Title : AS
Language : Thai
Default : No
Forced : No

Text #8
ID : 11
Format : PGS
Codec ID : S_HDMV/PGS
Codec ID/Info : Picture based subtitle format used on BDs/HD-DVDs
Title : BD MASTER
Language : English
Default : No
Forced : No

Menu
00:00:00.000 : en:A World of Trouble
00:05:01.760 : en:Worth Killing For
00:09:32.446 : en:Male on Board
00:14:50.098 : en:Vultures
00:19:50.856 : en:Main Titles
00:29:14.002 : en:Crew Plus One
00:36:19.260 : en:Den of Thieves
00:44:10.273 : en:A Boatful of Citizens
00:49:55.701 : en:Public Relations
00:55:45.050 : en:Companionable
00:59:29.316 : en:Last Stand
01:04:46.256 : en:Bribery
01:09:14.734 : en:Campfire Stories
01:13:34.785 : en:Mean Old Man
01:22:39.580 : en:Lost in the Woods
01:30:19.581 : en:Government Goods
01:36:58.479 : en:Impatience
01:45:57.726 : en:Return of the Reavers
01:47:38.118 : en:Still Flying
01:53:22.671 : en:End Titles

DOWNLOAD


PART01 |||| PART02 |||| PART03 |||| PART04 |||| PART05

PART01 |||| PART02 |||| PART03 |||| PART04 |||| PART05

PART01 |||| PART02 |||| PART03 |||| PART04 |||| PART05

PART01 |||| PART02 |||| PART03 |||| PART04 |||| PART05

PART01 |||| PART02 |||| PART03 |||| PART04 |||| PART05


4 Comments
  1. Coke SleepyZ
    Coke SleepyZ says

    Cornfile โหลดไม่ได้ครับ

    1. Admin
      Admin says

      โหลดได้ปกตินิ ไม่ได้ยังไงหว่า

  2. The Viper
    The Viper says

    เสียครับ

    1. Admin
      Admin says

      แก้ไขเรียบร้อยฮ๊ะ

Leave A Reply

อีเมล์ของคุณจะไม่แสดงให้เห็น Your email address will not be published.

%d bloggers like this: