[MINI Super-HQ] The Terminal (2004) ด้วยรักและมิตรภาพ [1080p] [พากย์ไทย 5.1 + เสียงอังกฤษ DTS] [บรรยายไทย + อังกฤษ] [เสียงไทย + ซับไทย] [PANDAFILE]

8

โหลดหนัง The Terminal (2004) ด้วยรักและมิตรภาพ

The Terminal | June 18, 2004 (United States) Summary: An Eastern European tourist unexpectedly finds himself stranded in JFK airport, and must take up temporary residence there.
Countries: United StatesLanguages: English, Bulgarian, Spanish, Russian, Mandarin, German, French

เรื่องย่อ The Terminal (2004) ด้วยรักและมิตรภาพ

เรื่องราวของ วิกเตอร์ นาวอร์สกี้ (ทอม แฮงก์ส) ชาวยุโรปตะวันออกที่เดินทางมายังนิวยอร์กซิตี้ ในขณะที่บ้านเกิดของเขาเกิดเหตุรุนแรงอย่างกระทันหัน ในขณะที่เขาอยู่ระหว่างเดินทางบินลัดฟ้ามายังอเมริกา ทำให้วิกเตอร์ต้องติดแหง่กอยู่ที่สนามบินนานาชาติ จอห์น เอฟ เคนเนดี้ พร้อมกับพาสปอร์ตที่ไร้สังกัด และไม่ได้รับอนุญาตให้เข้าประเทศอเมริกา วิกเตอร์จึงต้องใช้ชีวิตทั้งกลางวันและกลางคืนอยู่ภายในอาคารผู้โดยสาร จนกว่าสงครามที่บ้านเกิดของเขาจะสิ้นสุดลงจากอาทิตย์เป็นแรมเดือน วิกเตอร์พบว่าโลกใบย่อมของอาคารผู้โดยสาร คือโลกที่แสนซับซ้อนที่เต็มไปด้วยเรื่องน่าหัวเราะ ความมีน้ำใจ ความทะเยอทะยาน ความเพลินเพลิน ตำแหน่ง ความมีโชค และแม้กระทั่งความรักที่มีต่อเจ้าหน้าที่ต้อนรับบนเครื่องบินแสนสวยที่ชื่อ เอมิเลีย (แคเธอรีน ซีต้า-โจนส์) แต่วิกเตอร์อยู่นานเสียจน แฟรงก์ ดิ๊กซอน เจ้าหน้าที่ประจำสนามบินรู้สึกเบื่อหน่าย และเริ่มมองว่าวิกเตอร์คือปัญหาที่เขาไม่สามารถควบคุมได้ และเป็นปัญหาที่เขาอยากกำจัดทิ้งที่สุด

Complete name : [MINI Super-HQ]_The.Terminal.2004.1080p.x264.DTS.One2loadup.com.mkv
Format : Matroska
Format version : Version 4 / Version 2
File size : 4.34 GiB
Duration : 2 h 8 min
Overall bit rate : 4 830 kb/s
Movie name : [MINI Super-HQ]_The.Terminal.2004.1080p.x264.DTS.One2loadup.com
Encoded date : UTC 2015-09-02 16:13:10
Writing application : mkvmerge v8.3.0 (‘Over the Horizon’) 64bit
Writing library : libebml v1.3.1 + libmatroska v1.4.2

Video
ID : 1
Format : AVC
Format/Info : Advanced Video Codec
Format profile : [email protected]
Format settings, CABAC : Yes
Format settings, RefFrames : 16 frames
Codec ID : V_MPEG4/ISO/AVC
Duration : 2 h 8 min
Bit rate : 3 620 kb/s
Width : 1 920 pixels
Height : 1 036 pixels
Display aspect ratio : 1.85:1
Frame rate mode : Constant
Frame rate : 23.976 (24000/1001) FPS
Color space : YUV
Chroma subsampling : 4:2:0
Bit depth : 8 bits
Scan type : Progressive
Bits/(Pixel*Frame) : 0.076
Stream size : 3.25 GiB (75%)
Title : AVC_L51
Writing library : x264 core 142 r2431+42 c69a006 tMod [[email protected] X86_64]
Encoding settings : cabac=1 / ref=16 / deblock=1:0:0 / analyse=0x3:0x133 / me=umh / subme=10 / psy=1 / fade_compensate=0.00 / psy_rd=1.03:0.15 / mixed_ref=1 / me_range=32 / chroma_me=1 / trellis=2 / 8x8dct=1 / cqm=0 / deadzone=21,11 / fast_pskip=1 / chroma_qp_offset=-3 / threads=12 / lookahead_threads=2 / sliced_threads=0 / nr=0 / decimate=1 / interlaced=0 / bluray_compat=0 / constrained_intra=0 / fgo=0 / bframes=8 / b_pyramid=2 / b_adapt=2 / b_bias=0 / direct=3 / weightb=1 / open_gop=0 / weightp=2 / keyint=240 / keyint_min=24 / scenecut=40 / intra_refresh=0 / rc_lookahead=60 / rc=2pass / mbtree=1 / bitrate=3620 / ratetol=1.0 / qcomp=0.70 / qpmin=0:0:0 / qpmax=69:69:69 / qpstep=4 / cplxblur=20.0 / qblur=0.5 / ip_ratio=1.40 / aq=1:1.15 / aq-sensitivity=10.00 / aq-factor=1.00:1.00:1.00 / aq2=0 / aq3=0
Language : English
Default : Yes
Forced : No

Audio #1
ID : 2
Format : AC-3
Format/Info : Audio Coding 3
Format settings, Endianness : Big
Codec ID : A_AC3
Duration : 2 h 8 min
Bit rate mode : Constant
Bit rate : 384 kb/s
Channel(s) : 6 channels
Channel positions : Front: L C R, Side: L R, LFE
Sampling rate : 48.0 kHz
Frame rate : 31.250 FPS (1536 SPF)
Bit depth : 16 bits
Compression mode : Lossy
Stream size : 354 MiB (8%)
Title : Thai Dolby AC3 48KHz 6ch
Language : Thai
Service kind : Complete Main
Default : Yes
Forced : Yes

Audio #2
ID : 3
Format : DTS
Format/Info : Digital Theater Systems
Mode : 16
Format settings, Endianness : Big
Codec ID : A_DTS
Duration : 2 h 8 min
Bit rate mode : Constant
Bit rate : 755 kb/s
Channel(s) : 6 channels
Channel positions : Front: L C R, Side: L R, LFE
Sampling rate : 48.0 kHz
Frame rate : 93.750 FPS (512 SPF)
Bit depth : 24 bits
Compression mode : Lossy
Stream size : 695 MiB (16%)
Title : English DTS 48KHz 6ch
Language : English
Default : No
Forced : No

Text #1
ID : 4
Format : VobSub
Codec ID : S_VOBSUB
Codec ID/Info : Picture based subtitle format used on DVDs
Duration : 2 h 0 min
Bit rate : 2 103 b/s
Count of elements : 1361
Stream size : 1.81 MiB (0%)
Title : THA VOBSUB 480 – JINDARA
Language : Thai
Default : No
Forced : No

Text #2
ID : 5
Format : VobSub
Codec ID : S_VOBSUB
Codec ID/Info : Picture based subtitle format used on DVDs
Duration : 2 h 0 min
Bit rate : 8 828 b/s
Count of elements : 1361
Stream size : 7.60 MiB (0%)
Title : THA VOBSUB 1080 – JINDARA
Language : Thai
Default : No
Forced : No

Text #3
ID : 6
Format : PGS
Codec ID : S_HDMV/PGS
Codec ID/Info : Picture based subtitle format used on BDs/HD-DVDs
Duration : 2 h 0 min
Bit rate : 31.5 kb/s
Count of elements : 2722
Stream size : 27.1 MiB (1%)
Title : THA HDMV/PGS – JINDARA
Language : Thai
Default : No
Forced : No

Text #4
ID : 7
Format : PGS
Codec ID : S_HDMV/PGS
Codec ID/Info : Picture based subtitle format used on BDs/HD-DVDs
Duration : 2 h 0 min
Bit rate : 32.8 kb/s
Count of elements : 2722
Stream size : 28.2 MiB (1%)
Title : THA HDMV/PGS – HANUMAN
Language : Thai
Default : No
Forced : No

Text #5
ID : 8
Format : UTF-8
Codec ID : S_TEXT/UTF8
Codec ID/Info : UTF-8 Plain Text
Duration : 2 h 0 min
Bit rate : 55 b/s
Count of elements : 1404
Stream size : 48.6 KiB (0%)
Title : ENG SRT
Language : English
Default : No
Forced : No

DOWNLOAD


PART01 |||| PART02 |||| PART03 |||| PART04 |||| PART05

PART01 |||| PART02 |||| PART03 |||| PART04 |||| PART05

PART01 |||| PART02 |||| PART03 |||| PART04 |||| PART05

PART01 |||| PART02 |||| PART03 |||| PART04 |||| PART05

PART01 |||| PART02 |||| PART03 |||| PART04 |||| PART05


8 Comments
  1. Rosem says

    ลิงก์มีปัญหาจ้า

    1. Admin
      Admin says

      แก้ไขเรียบร้อยฮ๊ะ

  2. ฺBESTNATTAPON says

    โหลดpanda ความเร็วไม่ขึ้นเลยครับ

    1. Admin
      Admin says

      ก็โหลดได้ปกติฮ๊ะ ถ้ามันไม่ขึ้นมันไม่ได้เกี่ยวกับเราเด้อ เป็นที่เชิฟ pandafile เองเราแก้ไขอะไรไม่ได้นะฮ๊ะ

  3. ฺBESTNATTAPON says

    pandaโหลดไม่ขึ้นเลยครับ

    1. Admin
      Admin says

      ก็โหลดได้ปกติฮ๊ะ ถ้ามันไม่ขึ้นมันไม่ได้เกี่ยวกับเราเด้อ เป็นที่เชิฟ pandafile เองเราแก้ไขอะไรไม่ได้นะฮ๊ะ
      เนื่องจากการแจ้งแก้ไขเยอะเกินไปเราจะเลื่อนแก้ไขไปสัปดาห์หน้าเลยนะฮ๊ะ เพราะ ถ้าแก้หนัง (คือการลงใหม่อีกรอบ) ทำให้ หนังใหม่หรือ หนังที่ขอเข้ามาไม่ขยับเลยนะฮ๊ะต้องขออภัยด้วย

  4. Rosem says

    ลิงก์มีปัญหาจ้า

    1. Admin
      Admin says

      แก้ไขเรียบร้อยฮ๊ะ

Leave A Reply

อีเมล์ของคุณจะไม่แสดงให้เห็น Your email address will not be published.

%d bloggers like this: