[MINI Super-HQ] Ted (2012) หมีไม่แอ๊บ แสบได้อีก [1080p] [พากย์ไทย 5.1 + อังกฤษ 5.1] [บรรยายไทย + อังกฤษ] [เสียงไทย + ซับไทย] [ONE2UP]

0

โหลดหนัง Ted (2012) หมีไม่แอ๊บ แสบได้อีก

Ted (2012) 1h 46min | Comedy, Fantasy | 13 September 2012 (Netherlands) Summary: John Bennett, a man whose childhood wish of bringing his teddy bear to life came true, now must decide between keeping the relationship with the bear or his girlfriend, Lori.
Countries: USALanguages: English, Japanese

เรื่องย่อ Ted (2012) หมีไม่แอ๊บ แสบได้อีก

จากทีมผู้สร้าง Family Guy ผู้กำกับ เซธ แมคฟาร์เลนได้นำอารมณ์ขันที่เกินจินตนาการของเขามาสร้างเป็นภาพยนตร์ ที่เขาควบหน้าที่ทั้งเขียนบท กำกับและให้เสียงพากย์ตัวหมีเท็ดดี้สุดป่วนที่ชื่อว่าเท็ด ในภาพยนตร์แนวคอมเมดี้ผสมซีจีแอนิเมทเรื่องนี้ เขาจะนำเอาเรื่องราวของหนุ่มหล่อล่ำ จอห์น เบนเนท(นำแสดงโดย มาร์ค วอลห์เบิร์ก) ที่เจอภาวะจิตป่วนจากเจ้าตุ๊กตาหมีเท็ดดี้ ที่เป็นเพื่อนรักสมัยเด็ก แต่ดันมาพูดได้เหมือนคน ด้วยผลของคำอธิษฐานจากตอนเด็กๆ และนี่คือต้นเหตุของความปั่นป่วนที่เกิดขึ้นในชีวิตของเขาทั้งเรื่องรัก เรื่องงาน และอีกสารพัดเรื่อง

Complete name : [MINI Super-HQ]_Ted.2012.1080p.x264.AC3.One2loadup.com.mkv
Format : Matroska
Format version : Version 4 / Version 2
File size : 3.91 GiB
Duration : 1 h 46 min
Overall bit rate mode : Variable
Overall bit rate : 5 281 kb/s
Encoded date : UTC 2015-05-19 07:41:36
Writing application : mkvmerge v7.6.0 (‘Garden of Dreams’) 32bit built on Feb 8 2015 12:51:39
Writing library : libebml v1.3.1 + libmatroska v1.4.2

Video
ID : 1
Format : AVC
Format/Info : Advanced Video Codec
Format profile : [email protected]
Format settings : CABAC / 3 Ref Frames
Format settings, CABAC : Yes
Format settings, ReFrames : 3 frames
Codec ID : V_MPEG4/ISO/AVC
Duration : 1 h 46 min
Bit rate mode : Variable
Bit rate : 4 424 kb/s
Maximum bit rate : 24.0 Mb/s
Width : 1 920 pixels
Height : 1 080 pixels
Display aspect ratio : 16:9
Frame rate mode : Constant
Frame rate : 23.976 (24000/1001) FPS
Color space : YUV
Chroma subsampling : 4:2:0
Bit depth : 8 bits
Scan type : Progressive
Bits/(Pixel*Frame) : 0.089
Stream size : 3.28 GiB (84%)
Writing library : x264 core 120 r2120 0c7dab9
Encoding settings : cabac=1 / ref=3 / deblock=1:0:0 / analyse=0x3:0x113 / me=umh / subme=7 / psy=1 / psy_rd=1.00:0.25 / mixed_ref=1 / me_range=16 / chroma_me=1 / trellis=1 / 8x8dct=1 / cqm=0 / deadzone=21,11 / fast_pskip=1 / chroma_qp_offset=-4 / threads=6 / sliced_threads=0 / slices=4 / nr=0 / decimate=1 / interlaced=0 / bluray_compat=1 / constrained_intra=0 / bframes=3 / b_pyramid=1 / b_adapt=1 / b_bias=0 / direct=3 / weightb=1 / open_gop=1 / weightp=0 / keyint=24 / keyint_min=2 / scenecut=40 / intra_refresh=0 / rc_lookahead=24 / rc=2pass / mbtree=1 / bitrate=4424 / ratetol=1.0 / qcomp=0.60 / qpmin=0 / qpmax=69 / qpstep=4 / cplxblur=20.0 / qblur=0.5 / vbv_maxrate=24000 / vbv_bufsize=24000 / nal_hrd=vbr / ip_ratio=1.40 / aq=1:1.00
Default : Yes
Forced : No

Audio #1
ID : 2
Format : AC-3
Format/Info : Audio Coding 3
Codec ID : A_AC3
Duration : 1 h 46 min
Bit rate mode : Constant
Bit rate : 384 kb/s
Channel(s) : 6 channels
Channel positions : Front: L C R, Side: L R, LFE
Sampling rate : 48.0 kHz
Frame rate : 31.250 FPS (1536 SPF)
Bit depth : 16 bits
Compression mode : Lossy
Stream size : 291 MiB (7%)
Title : Thai AC3 5.1 Ch @ 384 Kbps
Language : Thai
Service kind : Complete Main
Default : Yes
Forced : No

Audio #2
ID : 3
Format : AC-3
Format/Info : Audio Coding 3
Codec ID : A_AC3
Duration : 1 h 46 min
Bit rate mode : Constant
Bit rate : 448 kb/s
Channel(s) : 6 channels
Channel positions : Front: L C R, Side: L R, LFE
Sampling rate : 48.0 kHz
Frame rate : 31.250 FPS (1536 SPF)
Bit depth : 16 bits
Compression mode : Lossy
Stream size : 340 MiB (8%)
Title : English AC3 5.1 Ch @ 448 Kbps
Language : English
Service kind : Complete Main
Default : No
Forced : No

Text #1
ID : 4
Format : VobSub
Muxing mode : zlib
Codec ID : S_VOBSUB
Codec ID/Info : Picture based subtitle format used on DVDs
Duration : 1 h 45 min
Bit rate : 5 450 b/s
Count of elements : 1576
Stream size : 4.11 MiB (0%)
Title : Thai 1080p
Language : Thai
Default : Yes
Forced : No

Text #2
ID : 5
Format : VobSub
Muxing mode : zlib
Codec ID : S_VOBSUB
Codec ID/Info : Picture based subtitle format used on DVDs
Duration : 1 h 45 min
Bit rate : 2 644 b/s
Count of elements : 1576
Stream size : 1.99 MiB (0%)
Title : Thai 480p
Language : Thai
Default : No
Forced : No

Text #3
ID : 6
Format : PGS
Muxing mode : zlib
Codec ID : S_HDMV/PGS
Codec ID/Info : Picture based subtitle format used on BDs/HD-DVDs
Duration : 1 h 45 min
Bit rate : 14.8 kb/s
Count of elements : 3152
Stream size : 11.1 MiB (0%)
Title : Thai PGS
Language : Thai
Default : No
Forced : No

Text #4
ID : 7
Format : UTF-8
Codec ID : S_TEXT/UTF8
Codec ID/Info : UTF-8 Plain Text
Duration : 1 h 45 min
Bit rate : 144 b/s
Count of elements : 1576
Stream size : 111 KiB (0%)
Title : Thai SRT
Language : Thai
Default : No
Forced : No

Text #5
ID : 8
Format : UTF-8
Codec ID : S_TEXT/UTF8
Codec ID/Info : UTF-8 Plain Text
Duration : 1 h 40 min
Bit rate : 76 b/s
Count of elements : 1680
Stream size : 55.7 KiB (0%)
Title : English SRT
Language : English
Default : No
Forced : No

DOWNLOAD


PART01 |||| PART02 |||| PART03 |||| PART04

PART01 |||| PART02 |||| PART03 |||| PART04

PART01 |||| PART02 |||| PART03 |||| PART04

PART01 |||| PART02 |||| PART03 |||| PART04


Leave A Reply

Your email address will not be published.

%d bloggers like this: