[MINI Super-HQ] SuckSeed (2011) ห่วยขั้นเทพ [1080p] [NETFLIX] [พากย์ไทย 5.1] [บรรยายไทย + อังกฤษ] [เสียงไทย + ซับไทย] [DOSYAUPLOAD]

0

โหลดหนัง SuckSeed (2011) ห่วยขั้นเทพ

SuckSeed 130min | Comedy, Music, Romance | March 17, 2011 (Thailand) Summary: Ped (Jirayu La-ongmanee) was a shy boy who had never listened to music until introduced to the world of Pop and Rock by would-be childhood crush Ern (Nattasha Nualjam). Ern soon left for Ban... Read all
Countries: ThailandLanguages: Thai

เรื่องย่อ SuckSeed (2011) ห่วยขั้นเทพ

เป็ด เด็กประถมสุดเห่ยที่ไม่เคยฟังเพลง แต่เพราะ เอิญ เพื่อนร่วมห้องได้ทำให้เขารู้จักกับเพลง และความรัก แต่รักครั้งแรกก็ต้องแตกสลาย เมื่อเธอต้องย้ายไปไกลแสนไกล…เวลาผ่านไปไวถึง ม.6 เอิญก็กลับมาพร้อมกับความน่ารักและฝีมือกีตาร์ขั้นเทพ เป็ดที่ยังเห่ยเหมือนเดิมจึงจับมือกับ คุ้ง เพื่อนสนิทสุดเกรียนที่วันๆ คิดแต่จะหม้อหญิง พ่วงด้วย เอ็กซ์ มือกลองบ้าพลังที่อยากสอยดาวโรงเรียนที่แอบชอบอยู่ รวมกันเป็นสามตัวห่วย ตั้งวงเพื่อจีบสาวสวย ด้วยเสียงดนตรีที่สุดซี้ด ให้ทุกคนได้ร้องกรี๊ด ไปพร้อมๆกับวง SuckSeeD

Complete name : [MINI Super-HQ]_SuckSeed.2011.1080p.NF.WEB-DL.AC3.x264.One2loadup.com.mkv
Format : Matroska
Format version : Version 4
File size : 5.46 GiB
Duration : 2 h 10 min
Overall bit rate : 6 009 kb/s
Movie name : [MINI Super-HQ]_SuckSeed.2011.1080p.NF.WEB-DL.AC3.x264.One2loadup.com
Encoded date : UTC 2018-12-20 16:57:10
Writing application : mkvmerge v29.0.0 (‘Like It Or Not’) 64-bit
Writing library : libebml v1.3.6 + libmatroska v1.4.9

Video
ID : 1
Format : AVC
Format/Info : Advanced Video Codec
Format profile : [email protected]
Format settings : CABAC / 3 Ref Frames
Format settings, CABAC : Yes
Format settings, Reference : 3 frames
Codec ID : V_MPEG4/ISO/AVC
Duration : 2 h 10 min
Bit rate : 5 611 kb/s
Width : 1 920 pixels
Height : 1 080 pixels
Display aspect ratio : 16:9
Frame rate mode : Constant
Frame rate : 25.000 FPS
Color space : YUV
Chroma subsampling : 4:2:0
Bit depth : 8 bits
Scan type : Progressive
Bits/(Pixel*Frame) : 0.108
Stream size : 5.10 GiB (93%)
Title : [MINI Super-HQ]_SuckSeed.2011.1080p.NF.WEB-DL.AC3.x264.One2loadup.com
Default : Yes
Forced : No

Audio
ID : 2
Format : AC-3
Format/Info : Audio Coding 3
Commercial name : Dolby Digital
Codec ID : A_AC3
Duration : 2 h 10 min
Bit rate mode : Constant
Bit rate : 384 kb/s
Channel(s) : 6 channels
Channel layout : L R C LFE Ls Rs
Sampling rate : 48.0 kHz
Frame rate : 31.250 FPS (1536 SPF)
Compression mode : Lossy
Delay relative to video : -40 ms
Stream size : 357 MiB (6%)
Language : Thai
Service kind : Complete Main
Default : Yes
Forced : No

Text #1
ID : 3
Format : UTF-8
Codec ID : S_TEXT/UTF8
Codec ID/Info : UTF-8 Plain Text
Duration : 2 h 5 min
Bit rate : 52 b/s
Count of elements : 1521
Stream size : 47.9 KiB (0%)
Title : Eng
Language : English
Default : Yes
Forced : No

Text #2
ID : 4
Format : PGS
Muxing mode : zlib
Codec ID : S_HDMV/PGS
Codec ID/Info : Picture based subtitle format used on BDs/HD-DVDs
Duration : 2 h 5 min
Bit rate : 27.3 kb/s
Count of elements : 4130
Stream size : 24.5 MiB (0%)
Title : Thai
Language : Thai
Default : No
Forced : No

DOWNLOAD


PART01 |||| PART02 |||| PART03 |||| PART04 |||| PART05 |||| PART06

PART01 |||| PART02 |||| PART03 |||| PART04 |||| PART05 |||| PART06

PART01 |||| PART02 |||| PART03 |||| PART04 |||| PART05 |||| PART06

PART01 |||| PART02 |||| PART03 |||| PART04 |||| PART05 |||| PART06

PART01 |||| PART02 |||| PART03 |||| PART04 |||| PART05 |||| PART06


Leave A Reply

อีเมล์ของคุณจะไม่แสดงให้เห็น Your email address will not be published.

%d bloggers like this: