[MINI Super-HQ] State of Mind (Three Christs) (2020) ขึ้นอยู่ที่ใจ [1080p] [พากย์ไทย 2.0 + เสียงอังกฤษ DTS] [บรรยายไทย + อังกฤษ] [เสียงไทยมาสเตอร์ + ซับไทย] [PANDAFILE]

0

โหลดหนัง State of Mind (Three Christs) (2020) ขึ้นอยู่ที่ใจ

Three Christs (2017) 1h 49min | Drama | 3 January 2020 (USA) Summary: Three Christs follows Dr. Alan Stone who is treating three paranoid schizophrenic patients at the Ypsilanti State Hospital in Michigan, each of whom believed they were Jesus Christ. What transpires is both comic and deeply moving.
Countries: USALanguages: English

เรื่องย่อ State of Mind (Three Christs) (2020) ขึ้นอยู่ที่ใจ

บอกเล่าเรื่องราวของการทดลองพิเศษที่เริ่มขึ้นในปี 1959 ที่โรงพยาบาล Ypsilanti State ของมิชิแกนซึ่งดร. อลันสโตนได้รักษาผู้ป่วยจิตเภทที่หวาดระแวงสามคนซึ่งแต่ละคนเชื่อว่าพวกเขาคือพระเยซูคริสต์ ดร.สโตนเป็นผู้บุกเบิกการรักษาที่เรียบง่าย แต่เป็นการปฏิวัติ: แทนที่จะส่งผู้ป่วยไปที่ไฟฟ้าช็อตบังคับเครื่องพันธนาการและยากล่อมประสาทเขาทำให้พวกเขาอยู่ในห้องร่วมกันเพื่อเผชิญหน้ากับความหลงผิด สิ่งที่เกิดขึ้นคือการ์ตูนแนวมืดมนเรื่องราวที่น่าทึ่งอย่างเข้มข้นเกี่ยวกับธรรมชาติของตัวตนและพลังของการเอาใจใส่!!!

Complete name : [MINI Super-HQ]_State.of.Mind.2020.1080p.BrRip.DTS.x264.THM.One2loadup.com.mkv
Format : Matroska
Format version : Version 4
File size : 3.72 GiB
Duration : 1 h 48 min
Overall bit rate : 4 897 kb/s
Movie name : [MINI Super-HQ]_State.of.Mind.2020.1080p.BrRip.DTS.x264.THM.One2loadup.com
Encoded date : UTC 2020-11-25 11:28:26
Writing application : mkvmerge v9.8.0 (‘Kuglblids’) 64bit
Writing library : libebml v1.3.4 + libmatroska v1.4.5

Video
ID : 1
Format : AVC
Format/Info : Advanced Video Codec
Format profile : [email protected]
Format settings : CABAC / 4 Ref Frames
Format settings, CABAC : Yes
Format settings, ReFrames : 4 frames
Codec ID : V_MPEG4/ISO/AVC
Duration : 1 h 48 min
Bit rate : 3 583 kb/s
Width : 1 920 pixels
Height : 1 038 pixels
Display aspect ratio : 1.85:1
Frame rate mode : Constant
Frame rate : 23.976 (24000/1001) FPS
Color space : YUV
Chroma subsampling : 4:2:0
Bit depth : 8 bits
Scan type : Progressive
Bits/(Pixel*Frame) : 0.075
Stream size : 2.72 GiB (73%)
Title : [MINI Super-HQ]_State.of.Mind.2020.1080p.BrRip.DTS.x264.THM.One2loadup.com
Language : English
Default : Yes
Forced : No

Audio #1
ID : 2
Format : AC-3
Format/Info : Audio Coding 3
Commercial name : Dolby Digital
Codec ID : A_AC3
Duration : 1 h 48 min
Bit rate mode : Constant
Bit rate : 384 kb/s
Channel(s) : 2 channels
Channel layout : L R
Sampling rate : 44.1 kHz
Frame rate : 28.711 FPS (1536 SPF)
Bit depth : 16 bits
Compression mode : Lossy
Delay relative to video : 2 ms
Stream size : 299 MiB (8%)
Title : Thai Master
Language : Thai
Service kind : Complete Main
Default : Yes
Forced : Yes

Audio #2
ID : 3
Format : DTS
Format/Info : Digital Theater Systems
Codec ID : A_DTS
Duration : 1 h 48 min
Bit rate mode : Constant
Bit rate : 755 kb/s
Channel(s) : 6 channels
Channel layout : C L R Ls Rs LFE
Sampling rate : 48.0 kHz
Frame rate : 93.750 FPS (512 SPF)
Bit depth : 24 bits
Compression mode : Lossy
Stream size : 588 MiB (15%)
Title : English DTS
Language : English
Default : No
Forced : No

Text #1
ID : 4
Format : VobSub
Codec ID : S_VOBSUB
Codec ID/Info : Picture based subtitle format used on DVDs
Duration : 1 h 43 min
Bit rate : 6 106 b/s
Count of elements : 1366
Stream size : 4.52 MiB (0%)
Title : Thai 720p
Language : Thai
Default : No
Forced : No

Text #2
ID : 5
Format : VobSub
Codec ID : S_VOBSUB
Codec ID/Info : Picture based subtitle format used on DVDs
Duration : 1 h 43 min
Bit rate : 11.1 kb/s
Count of elements : 1366
Stream size : 8.24 MiB (0%)
Title : Thai 1080p
Language : Thai
Default : Yes
Forced : Yes

Text #3
ID : 6
Format : VobSub
Codec ID : S_VOBSUB
Codec ID/Info : Picture based subtitle format used on DVDs
Duration : 1 h 43 min
Bit rate : 11.1 kb/s
Count of elements : 1366
Stream size : 8.24 MiB (0%)
Title : Thai 1080p Yellow
Language : Thai
Default : No
Forced : No

Text #4
ID : 7
Format : VobSub
Codec ID : S_VOBSUB
Codec ID/Info : Picture based subtitle format used on DVDs
Duration : 1 h 43 min
Bit rate : 15.4 kb/s
Count of elements : 1366
Stream size : 11.4 MiB (0%)
Title : Thai 1080p BIG
Language : Thai
Default : No
Forced : No

Text #5
ID : 8
Format : PGS
Codec ID : S_HDMV/PGS
Codec ID/Info : Picture based subtitle format used on BDs/HD-DVDs
Duration : 1 h 44 min
Bit rate : 46.7 kb/s
Count of elements : 2735
Stream size : 34.8 MiB (1%)
Title : Thai PGS
Language : Thai
Default : No
Forced : No

Text #6
ID : 9
Format : PGS
Codec ID : S_HDMV/PGS
Codec ID/Info : Picture based subtitle format used on BDs/HD-DVDs
Duration : 1 h 44 min
Bit rate : 46.8 kb/s
Count of elements : 2735
Stream size : 34.9 MiB (1%)
Title : Thai PGS Yellow
Language : Thai
Default : No
Forced : No

Text #7
ID : 10
Format : PGS
Codec ID : S_HDMV/PGS
Codec ID/Info : Picture based subtitle format used on BDs/HD-DVDs
Duration : 1 h 42 min
Bit rate : 45.3 kb/s
Count of elements : 3142
Stream size : 33.1 MiB (1%)
Title : English
Language : English
Default : No
Forced : No

Menu
00:00:00.000 : en:1
00:03:17.000 : en:2
00:15:10.000 : en:3
00:22:54.000 : en:4
00:31:26.000 : en:5
00:42:45.000 : en:6
00:50:52.000 : en:7
01:00:56.000 : en:8
01:08:50.000 : en:9
01:20:07.000 : en:10
01:30:05.000 : en:11
01:39:38.000 : en:12
01:44:33.000 : en:13

DOWNLOAD


PART01 |||| PART02 |||| PART03 |||| PART04

PART01 |||| PART02 |||| PART03 |||| PART04

PART01 |||| PART02 |||| PART03 |||| PART04

PART01 |||| PART02 |||| PART03 |||| PART04

PART01 |||| PART02 |||| PART03 |||| PART04



แจ้งหนังเสีย หรือโหลดไม่ได้ ทั้งลิ้งฟรีและ vip สามารถกดที่รูปด้านบนนี้ได้เลย

: Disable Comments
%d bloggers like this: