[MINI Super-HQ] Spy (2015) สปาย [1080p] [พากย์ไทย 5.1 + เสียงอังกฤษ DTS] [บรรยายไทย + อังกฤษ] [เสียงไทย + ซับไทย] [PANDAFILE]

0

Spy (2015) สปาย

โหลดหนัง Spy (2015) สปาย 

Spy: Susan Cooper Undercover (2015) 2h | Action, Comedy, Crime | 4 June 2015 (Germany) Summary: A desk-bound CIA analyst volunteers to go undercover to infiltrate the world of a deadly arms dealer, and prevent diabolical global disaster.
Countries: USA, UK, France, Hungary, GermanyLanguages: Hungarian, English, French, Italian, German

เรื่องย่อ Spy (2015) สปาย

ซูซาน คูเปอร์ (เมลิสซา แม็คคาร์ธีย์) เป็นนักวิเคราะห์ CIA ผู้ถ่อมเนื้อถ่อมตนและได้แต่นั่งอยู่กับโต๊ะ เธอเป็นวีรสตรีที่ไม่มีใครกล่าวขวัญถึงเบื้องหลังภารกิจสุดอันตรายขององค์กรสายลับแห่งนี้ แต่เมื่อเพื่อนร่วมงานของเธอ (จู๊ด ลอว์) หายสาบสูญไปและสายลับระดับสูงอีกคนหนึ่ง (เจสัน สเตแธม) ก็ถูกเปิดเผยตัว เธอจึงอาสาปลอมตัวเข้าไปแทรกซึมในวงการนักค้าอาวุธซึ่งเต็มไปด้วยอันตรายและป้องกันไม่ให้หายนะระดับโลกเกิดขึ้น

Complete name : [MINI Super-HQ]_Spy.2015.1080p.BrRip.DTS.x264.One2loadup.com.mkv
Format : Matroska
Format version : Version 4 / Version 2
File size : 4.35 GiB
Duration : 1 h 59 min
Overall bit rate : 5 196 kb/s
Movie name : [MINI Super-HQ]_Spy.2015.1080p.BrRip.DTS.x264.One2loadup.com
Encoded date : UTC 2015-10-02 01:57:17
Writing application : mkvmerge v8.1.0 (‘Psychedelic Postcard’) 32bit
Writing library : libebml v1.3.1 + libmatroska v1.4.2
Cover : Yes
Attachments : cover_land.png / cover.png / cover_land.png / cover.png

Video
ID : 1
Format : AVC
Format/Info : Advanced Video Codec
Format profile : [email protected]
Format settings, CABAC : Yes
Format settings, RefFrames : 4 frames
Codec ID : V_MPEG4/ISO/AVC
Duration : 1 h 59 min
Bit rate : 3 839 kb/s
Width : 1 920 pixels
Height : 800 pixels
Display aspect ratio : 2.40:1
Frame rate mode : Constant
Frame rate : 23.976 (23976/1000) FPS
Color space : YUV
Chroma subsampling : 4:2:0
Bit depth : 8 bits
Scan type : Progressive
Bits/(Pixel*Frame) : 0.104
Stream size : 3.26 GiB (75%)
Title : [MINI Super-HQ]_Spy.2015.1080p.BrRip.DTS.x264.One2loadup.com
Writing library : x264 core 146 r2538 121396c
Encoding settings : cabac=1 / ref=4 / deblock=1:-3:-3 / analyse=0x3:0x113 / me=umh / subme=11 / psy=1 / psy_rd=1.00:0.00 / mixed_ref=1 / me_range=64 / chroma_me=1 / trellis=2 / 8x8dct=1 / cqm=0 / deadzone=21,11 / fast_pskip=0 / chroma_qp_offset=-2 / threads=24 / lookahead_threads=2 / sliced_threads=0 / nr=0 / decimate=1 / interlaced=0 / bluray_compat=0 / constrained_intra=0 / bframes=4 / b_pyramid=2 / b_adapt=2 / b_bias=0 / direct=3 / weightb=1 / open_gop=0 / weightp=2 / keyint=250 / keyint_min=23 / scenecut=40 / intra_refresh=0 / rc_lookahead=120 / rc=2pass / mbtree=1 / bitrate=3839 / ratetol=1.0 / qcomp=0.60 / qpmin=0 / qpmax=69 / qpstep=4 / cplxblur=20.0 / qblur=0.5 / vbv_maxrate=99999 / vbv_bufsize=99999 / nal_hrd=none / filler=0 / ip_ratio=1.40 / aq=1:1.00
Language : English
Default : Yes
Forced : No

Audio #1
ID : 2
Format : AC-3
Format/Info : Audio Coding 3
Format settings, Endianness : Big
Codec ID : A_AC3
Duration : 1 h 59 min
Bit rate mode : Constant
Bit rate : 448 kb/s
Channel(s) : 6 channels
Channel positions : Front: L C R, Side: L R, LFE
Sampling rate : 48.0 kHz
Frame rate : 31.250 FPS (1536 SPF)
Bit depth : 16 bits
Compression mode : Lossy
Stream size : 384 MiB (9%)
Title : AC3 BD MASTER ZAKKY
Language : Thai
Service kind : Complete Main
Default : Yes
Forced : Yes

Audio #2
ID : 3
Format : DTS
Format/Info : Digital Theater Systems
Mode : 16
Format settings, Endianness : Big
Codec ID : A_DTS
Duration : 1 h 59 min
Bit rate mode : Constant
Bit rate : 755 kb/s
Channel(s) : 6 channels
Channel positions : Front: L C R, Side: L R, LFE
Sampling rate : 48.0 kHz
Frame rate : 93.750 FPS (512 SPF)
Bit depth : 24 bits
Compression mode : Lossy
Stream size : 647 MiB (15%)
Title : DTS ZAKKY
Language : English
Default : No
Forced : No

Text #1
ID : 4
Format : VobSub
Codec ID : S_VOBSUB
Codec ID/Info : Picture based subtitle format used on DVDs
Title : 1080P BD MASTER ZAKKY
Language : Thai
Default : Yes
Forced : Yes

Text #2
ID : 5
Format : VobSub
Codec ID : S_VOBSUB
Codec ID/Info : Picture based subtitle format used on DVDs
Title : 1080P YELLOW
Language : Thai
Default : No
Forced : No

Text #3
ID : 6
Format : VobSub
Codec ID : S_VOBSUB
Codec ID/Info : Picture based subtitle format used on DVDs
Title : 1080P UNDER
Language : Thai
Default : No
Forced : No

Text #4
ID : 7
Format : VobSub
Codec ID : S_VOBSUB
Codec ID/Info : Picture based subtitle format used on DVDs
Title : 480P
Language : Thai
Default : No
Forced : No

Text #5
ID : 8
Format : PGS
Codec ID : S_HDMV/PGS
Codec ID/Info : Picture based subtitle format used on BDs/HD-DVDs
Title : BD MASTER
Language : Thai
Default : No
Forced : No

Text #6
ID : 9
Format : PGS
Codec ID : S_HDMV/PGS
Codec ID/Info : Picture based subtitle format used on BDs/HD-DVDs
Title : BD UNDER
Language : English
Default : No
Forced : No

Text #7
ID : 10
Format : PGS
Codec ID : S_HDMV/PGS
Codec ID/Info : Picture based subtitle format used on BDs/HD-DVDs
Title : BD MASTER
Language : English
Default : No
Forced : No

 

Spy (2015) สปาย

DOWNLOAD


PART01 |||| PART02 |||| PART03 |||| PART04 |||| PART05

PART01 |||| PART02 |||| PART03 |||| PART04 |||| PART05

PART01 |||| PART02 |||| PART03 |||| PART04 |||| PART05

PART01 |||| PART02 |||| PART03 |||| PART04 |||| PART05

PART01 |||| PART02 |||| PART03 |||| PART04 |||| PART05



Disable Comments
%d bloggers like this: