[MINI Super-HQ] Spirit Untamed (2021) สปิริต ม้าพยศหัวใจแกร่ง [1080p] [พากย์ไทย DTS + เสียงอังกฤษ DTS] [บรรยายไทย + อังกฤษ] [เสียงไทย + ซับไทย] [DOSYAUPLOAD]

0

โหลดหนัง Spirit Untamed (2021) สปิริต ม้าพยศหัวใจแกร่ง

Spirit Untamed 88min | Animation, Adventure, Comedy, Family, Western | June 4, 2021 (United States) Summary: Lucky Prescott's life is changed forever when she moves from her home in the city to a small frontier town and befriends a wild mustang named Spirit.
Countries: United States, JapanLanguages: English

เรื่องย่อ Spirit Untamed (2021) สปิริต ม้าพยศหัวใจแกร่ง

ลัคกี้ เพรสคอตต์ (พากย์เสียงโดย อิซาเบลล่า เมอร์เซด) ไม่รู้จักแม่ที่เสียชีวิตไปแล้ว มิลาโกร เนวาร์โร(พากย์เสียงโดย อีซา กอนซาเลซ) นักแสดงผาดโผนที่ขี่ม้าโดยปราศจากความกลัว เธอมาจาก มิราเดโร เมืองเล็ก ๆ ริมพรมแดนที่เปิดกว้างเช่นเดียวกับแม่ของเธอ ลัคกี้ ไม่ได้สนใจเรื่องการทำตามกฎและข้อบังคับ ซึ่งทำให้ คอร่า ป้าของเธอ (พากย์เสียงโดย จูลีแอนน์ มัวร์) ไม่ห่วงเธอสักเท่าไรลัคกี้ เติบโตในเมืองชายฝั่งตะวันออกโดยมี คอร่า จับตาดูอยู่ แต่เมื่อ ลัคกี้ เริ่มมีพฤติกรรมทำอะไรแบบกล้าและบ้าบิ่นคอร่า จึงยอมเสี่ยงและย้ายกลับมาอยู่กับ จิม พ่อของลัคกี้ (พากย์เสียงโดย เจค จิลเลนฮาล) ที่มิราเดโร!!!

Complete name : [MINI Super-HQ]_Spirit.Untamed.2021.1080p.BrRip.DTS.x264.One2loadup.com.mkv
Format : Matroska
Format version : Version 4
File size : 3.87 GiB
Duration : 1 h 27 min
Overall bit rate : 6 312 kb/s
Movie name : [MINI Super-HQ]_Spirit.Untamed.2021.1080p.BrRip.DTS.x264.One2loadup.com
Encoded date : UTC 2021-09-23 16:57:59
Writing application : mkvmerge v9.8.0 (‘Kuglblids’) 64bit
Writing library : libebml v1.3.4 + libmatroska v1.4.5

Video
ID : 1
Format : AVC
Format/Info : Advanced Video Codec
Format profile : [email protected]
Format settings : CABAC / 4 Ref Frames
Format settings, CABAC : Yes
Format settings, Reference : 4 frames
Codec ID : V_MPEG4/ISO/AVC
Duration : 1 h 27 min
Bit rate : 4 700 kb/s
Width : 1 918 pixels
Height : 804 pixels
Display aspect ratio : 2.40:1
Frame rate mode : Constant
Frame rate : 23.976 (24000/1001) FPS
Color space : YUV
Chroma subsampling : 4:2:0
Bit depth : 8 bits
Scan type : Progressive
Bits/(Pixel*Frame) : 0.127
Stream size : 2.88 GiB (74%)
Title : [MINI Super-HQ]_Spirit.Untamed.2021.1080p.BrRip.DTS.x264.One2loadup.com
Writing library : x264 core 146 r2538 121396c
Encoding settings : cabac=1 / ref=5 / deblock=1:-3:-3 / analyse=0x3:0x133 / me=tesa / subme=11 / psy=1 / psy_rd=0.40:0.00 / mixed_ref=1 / me_range=48 / chroma_me=1 / trellis=2 / 8x8dct=1 / cqm=0 / deadzone=21,11 / fast_pskip=1 / chroma_qp_offset=-2 / threads=54 / lookahead_threads=4 / sliced_threads=0 / nr=0 / decimate=1 / interlaced=0 / bluray_compat=1 / constrained_intra=0 / bframes=3 / b_pyramid=1 / b_adapt=2 / b_bias=0 / direct=3 / weightb=1 / open_gop=0 / weightp=1 / keyint=250 / keyint_min=1 / scenecut=40 / intra_refresh=0 / rc_lookahead=60 / rc=2pass / mbtree=1 / bitrate=4700 / ratetol=1.0 / qcomp=0.60 / qpmin=0 / qpmax=69 / qpstep=4 / cplxblur=20.0 / qblur=0.5 / ip_ratio=1.40 / aq=1:1.30
Language : English
Default : Yes
Forced : No

Audio #1
ID : 2
Format : DTS
Format/Info : Digital Theater Systems
Codec ID : A_DTS
Duration : 1 h 27 min
Bit rate mode : Constant
Bit rate : 755 kb/s
Channel(s) : 6 channels
Channel layout : C L R Ls Rs LFE
Sampling rate : 48.0 kHz
Frame rate : 93.750 FPS (512 SPF)
Bit depth : 24 bits
Compression mode : Lossy
Stream size : 473 MiB (12%)
Title : Thai DTS-5.1
Language : Thai
Default : Yes
Forced : Yes

Audio #2
ID : 3
Format : DTS
Format/Info : Digital Theater Systems
Codec ID : A_DTS
Duration : 1 h 27 min
Bit rate mode : Constant
Bit rate : 755 kb/s
Channel(s) : 6 channels
Channel layout : C L R Ls Rs LFE
Sampling rate : 48.0 kHz
Frame rate : 93.750 FPS (512 SPF)
Bit depth : 24 bits
Compression mode : Lossy
Stream size : 473 MiB (12%)
Title : English DTS-5.1
Language : English
Default : No
Forced : No

Text #1
ID : 4
Format : PGS
Codec ID : S_HDMV/PGS
Codec ID/Info : Picture based subtitle format used on BDs/HD-DVDs
Duration : 1 h 26 min
Bit rate : 34.1 kb/s
Count of elements : 2310
Stream size : 21.1 MiB (1%)
Title : Thai PGS BluRay Master
Language : Thai
Default : Yes
Forced : Yes

Text #2
ID : 5
Format : VobSub
Codec ID : S_VOBSUB
Codec ID/Info : Picture based subtitle format used on DVDs
Duration : 1 h 26 min
Bit rate : 7 878 b/s
Count of elements : 1153
Stream size : 4.88 MiB (0%)
Title : Thai 1080p
Language : Thai
Default : No
Forced : No

Text #3
ID : 6
Format : VobSub
Codec ID : S_VOBSUB
Codec ID/Info : Picture based subtitle format used on DVDs
Duration : 1 h 26 min
Bit rate : 10.5 kb/s
Count of elements : 1153
Stream size : 6.53 MiB (0%)
Title : Thai 1080p Big [Yellow]
Language : Thai
Default : No
Forced : No

Text #4
ID : 7
Format : PGS
Codec ID : S_HDMV/PGS
Codec ID/Info : Picture based subtitle format used on BDs/HD-DVDs
Duration : 1 h 25 min
Bit rate : 47.4 kb/s
Count of elements : 2826
Stream size : 29.0 MiB (1%)
Title : English PGS BluRay Master
Language : English
Default : No
Forced : No

Menu
00:00:00.000 : en:00:00:00.000
00:01:57.659 : en:00:01:57.659
00:04:28.894 : en:00:04:28.894
00:09:05.962 : en:00:09:05.962
00:14:41.714 : en:00:14:41.714
00:19:34.799 : en:00:19:34.799
00:24:50.030 : en:00:24:50.030
00:30:29.536 : en:00:30:29.536
00:35:04.060 : en:00:35:04.060
00:40:08.489 : en:00:40:08.489
00:44:55.568 : en:00:44:55.568
00:50:02.833 : en:00:50:02.833
00:54:44.823 : en:00:54:44.823
01:01:02.450 : en:01:01:02.450
01:04:27.822 : en:01:04:27.822
01:06:34.073 : en:01:06:34.073
01:11:45.468 : en:01:11:45.468
01:16:49.188 : en:01:16:49.188
01:19:48.534 : en:01:19:48.534
01:21:48.904 : en:01:21:48.904

DOWNLOAD


PART01 |||| PART02 |||| PART03 |||| PART04

PART01 |||| PART02 |||| PART03 |||| PART04

PART01 |||| PART02 |||| PART03 |||| PART04

PART01 |||| PART02 |||| PART03 |||| PART04

PART01 |||| PART02 |||| PART03 |||| PART04


Leave A Reply

อีเมล์ของคุณจะไม่แสดงให้เห็น Your email address will not be published.

%d bloggers like this: