[MINI Super-HQ] Speed (1994) เร็วกว่านรก ภาค 1 [1080p] [พากย์ไทย 2.0 + เสียงอังกฤษ 5.1] [บรรยายไทย + อังกฤษ] [เสียงไทย + ซับไทย] [PANDAFILE]

0

โหลดหนัง Speed (1994) เร็วกว่านรก ภาค 1

Speed (1994) 1h 56min | Action, Adventure, Thriller | 10 June 1994 (USA) Summary: A young police officer must prevent a bomb exploding aboard a city bus by keeping its speed above 50 mph.
Countries: USALanguages: English

เรื่องย่อ Speed (1994) เร็วกว่านรก ภาค 1

ภารกิจสำคัญครั้งยิ่งใหญ่มาถึง แจ๊ค ทราเวน (คีอานู รีฟส์) นายตำรวจหน่วยกล้าตายแห่งแอล. เอ. ผู้มีปฏิภาณสูงในการล้างอาชญากรรม เมื่อรถประจำทางคันหนึ่งถูกวางระเบิด โดยชนวนจะจุดเมื่อรถแล่นด้วยความเร็วต่ำกว่า 50 ไมล์ต่อชั่วโมง ผู้ก่อเหตุสะเทือนขวัญนี้คือ โฮเวิร์ด เพย์น (เดนนิส ฮอปเปอร์) จอมอาชญากรโรคจิตผู้เกือบฆ่า นายตำรวจหนุ่มกับเพื่อนคู่หู (เจฟ แดเนียลส์) ตายมาแล้ว ในการปะทะกันก่อนหน้านี้ ผู้ร่วมท้ามฤตยูกับชายหนุ่มคือ แอนนี่ (แซนดร้า บูลล็อค) ผู้โดยสารสาวสวยคล่องแคล่วที่ต้องรับหน้าที่โชเฟอร์จำเป็น นำชีวิตเพื่อนร่วมชะตากรรม เสี่ยงภัยอย่างระทีกใจ ร่วมลุ้น และตื่นเต้นสุดสปีดกับภาพยนตร์แอ็คชั่นเงินล้านเรื่องนี้ที่จะไม่ทำให้คุณผิดหวัง

Complete name : [MINI Super-HQ]_1.Speed.1994.1080p.BrRip.AC3.x264.One2loadup.com.mkv
Format : Matroska
Format version : Version 4
File size : 3.84 GiB
Duration : 1 h 55 min
Overall bit rate : 4 740 kb/s
Movie name : [MINI Super-HQ]_1.Speed.1994.1080p.BrRip.AC3.x264.One2loadup.com
Encoded date : UTC 2015-07-23 09:37:05
Writing application : mkvmerge v8.1.0 (‘Psychedelic Postcard’) 32bit
Writing library : libebml v1.3.1 + libmatroska v1.4.2
Cover : Yes
Attachments : cover_land.png / cover.png

Video
ID : 1
Format : AVC
Format/Info : Advanced Video Codec
Format profile : [email protected]
Format settings : CABAC / 4 Ref Frames
Format settings, CABAC : Yes
Format settings, ReFrames : 4 frames
Codec ID : V_MPEG4/ISO/AVC
Duration : 1 h 55 min
Bit rate : 3 800 kb/s
Width : 1 920 pixels
Height : 818 pixels
Display aspect ratio : 2.35:1
Frame rate mode : Constant
Frame rate : 23.976 (24000/1001) FPS
Color space : YUV
Chroma subsampling : 4:2:0
Bit depth : 8 bits
Scan type : Progressive
Bits/(Pixel*Frame) : 0.101
Stream size : 3.06 GiB (80%)
Title : [MINI Super-HQ]_1.Speed.1994.1080p.BrRip.AC3.x264.One2loadup.com
Writing library : x264 core 133 r2334 a3ac64b
Encoding settings : cabac=1 / ref=4 / deblock=1:-3:-3 / analyse=0x3:0x133 / me=umh / subme=10 / psy=1 / psy_rd=1.00:0.00 / mixed_ref=1 / me_range=16 / chroma_me=1 / trellis=2 / 8x8dct=1 / cqm=0 / deadzone=21,11 / fast_pskip=1 / chroma_qp_offset=-2 / threads=6 / lookahead_threads=1 / sliced_threads=0 / nr=0 / decimate=1 / interlaced=0 / bluray_compat=0 / constrained_intra=0 / bframes=6 / b_pyramid=0 / b_adapt=1 / b_bias=0 / direct=1 / weightb=1 / open_gop=0 / weightp=2 / keyint=240 / keyint_min=24 / scenecut=40 / intra_refresh=0 / rc_lookahead=40 / rc=2pass / mbtree=1 / bitrate=3800 / ratetol=1.0 / qcomp=0.60 / qpmin=0 / qpmax=69 / qpstep=4 / cplxblur=20.0 / qblur=0.5 / vbv_maxrate=20000 / vbv_bufsize=20000 / nal_hrd=none / ip_ratio=1.40 / aq=1:1.00
Language : English
Default : Yes
Forced : No

Audio #1
ID : 2
Format : AC-3
Format/Info : Audio Coding 3
Commercial name : Dolby Digital
Codec ID : A_AC3
Duration : 1 h 55 min
Bit rate mode : Constant
Bit rate : 224 kb/s
Channel(s) : 2 channels
Channel layout : L R
Sampling rate : 48.0 kHz
Frame rate : 31.250 FPS (1536 SPF)
Bit depth : 16 bits
Compression mode : Lossy
Stream size : 186 MiB (5%)
Title : AC3
Language : Thai
Service kind : Complete Main
Default : Yes
Forced : Yes

Audio #2
ID : 3
Format : AC-3
Format/Info : Audio Coding 3
Commercial name : Dolby Digital
Codec ID : A_AC3
Duration : 1 h 55 min
Bit rate mode : Constant
Bit rate : 640 kb/s
Channel(s) : 6 channels
Channel layout : L R C LFE Ls Rs
Sampling rate : 48.0 kHz
Frame rate : 31.250 FPS (1536 SPF)
Bit depth : 16 bits
Compression mode : Lossy
Stream size : 531 MiB (14%)
Title : AC3
Language : English
Service kind : Complete Main
Default : No
Forced : No

Text #1
ID : 4
Format : VobSub
Codec ID : S_VOBSUB
Codec ID/Info : Picture based subtitle format used on DVDs
Title : 1080P
Language : Thai
Default : Yes
Forced : Yes

Text #2
ID : 5
Format : VobSub
Codec ID : S_VOBSUB
Codec ID/Info : Picture based subtitle format used on DVDs
Title : 1080P YELLOW
Language : Thai
Default : No
Forced : No

Text #3
ID : 6
Format : VobSub
Codec ID : S_VOBSUB
Codec ID/Info : Picture based subtitle format used on DVDs
Title : 1080P UNDER
Language : Thai
Default : No
Forced : No

Text #4
ID : 7
Format : VobSub
Codec ID : S_VOBSUB
Codec ID/Info : Picture based subtitle format used on DVDs
Title : 480P
Language : Thai
Default : No
Forced : No

Text #5
ID : 8
Format : PGS
Codec ID : S_HDMV/PGS
Codec ID/Info : Picture based subtitle format used on BDs/HD-DVDs
Title : BD MASTER
Language : Thai
Default : No
Forced : No

Text #6
ID : 9
Format : PGS
Codec ID : S_HDMV/PGS
Codec ID/Info : Picture based subtitle format used on BDs/HD-DVDs
Title : BD UNDER
Language : Thai
Default : No
Forced : No

Text #7
ID : 10
Format : PGS
Codec ID : S_HDMV/PGS
Codec ID/Info : Picture based subtitle format used on BDs/HD-DVDs
Title : BD MASTER
Language : English
Default : No
Forced : No

Menu
00:00:00.000 : en:1
00:04:18.550 : en:2
00:06:03.321 : en:3
00:08:26.089 : en:4
00:11:16.885 : en:5
00:15:22.713 : en:6
00:17:37.223 : en:7
00:23:20.816 : en:8
00:26:42.768 : en:9
00:31:00.776 : en:10
00:35:04.519 : en:11
00:40:25.131 : en:12
00:44:34.630 : en:13
00:48:45.506 : en:14
00:53:08.185 : en:15
00:55:46.593 : en:16
00:58:50.819 : en:17
01:02:18.443 : en:18
01:07:37.387 : en:19
01:08:53.546 : en:20
01:11:50.514 : en:21
01:15:15.845 : en:22
01:15:39.535 : en:23
01:19:32.518 : en:24
01:23:26.585 : en:25
01:27:03.635 : en:01:27:03.635
01:32:56.195 : en:26
01:37:05.027 : en:27
01:40:27.229 : en:28
01:42:18.883 : en:29
01:46:04.775 : en:30
01:50:05.265 : en:31

DOWNLOAD


PART01 |||| PART02 |||| PART03 |||| PART04

PART01 |||| PART02 |||| PART03 |||| PART04

PART01 |||| PART02 |||| PART03 |||| PART04

PART01 |||| PART02 |||| PART03 |||| PART04

PART01 |||| PART02 |||| PART03 |||| PART04



แจ้งหนังเสีย หรือโหลดไม่ได้ ทั้งลิ้งฟรีและ vip สามารถกดที่รูปด้านบนนี้ได้เลย

: Disable Comments
%d bloggers like this: