[MINI Super-HQ] Songbird (2020) โควิด 23 ไวรัสล้างโลก [1080p] [พากย์ไทย 5.1 + เสียงอังกฤษ DTS] [บรรยายไทย + อังกฤษ] [เสียงไทย + ซับไทย] [DOSYAUPLOAD]

0

โหลดหนัง Songbird (2020) โควิด 23 ไวรัสล้างโลก

Songbird (2020) 84min | Drama, Sci-Fi, Thriller | December 11, 2020 (Brazil) Summary: In 2024 a pandemic ravages the world and its cities. Centering on a handful of people as they navigate the obstacles currently hindering society: disease, martial law, quarantine, and vigilantes.
Countries: United StatesLanguages: English

เรื่องย่อ Songbird (2020) โควิด 23 ไวรัสล้างโลก

ในโลกอนาคตปี 2024 เมื่อ ไวรัสโควิด 23 ระบาดร้ายแรงเริ่มกลายพันธุ์ และคร่าชีวิตผู้คนไปมากกว่า 110 ล้านรายทั่วโลก! เพื่อป้องกันการแพร่เชื้อทั้งโลกจึงต้องอยู่ในภาวะล็อคดาวน์ มีการประกาศเคอร์ฟิวและพลเมืองที่ไม่ได้รับอนุญาตต้องอยู่แต่ในอาคารใครฝ่าฝืนจะถูกรัฐบาลใช้มาตราการรุนแรงปราบปรามแต่แล้วหายนะก็บังเกิดกับนิโก (เคเจ อาปา) ชายหนุ่มผู้มีภูมิคุ้มกันเมื่อ ซาร่า (โซเฟีย คาร์สัน) แฟนสาวของเขาที่ไม่เคยมีโอกาสเจอกันอีกเลยนับตั้งแต่เกิดเหตุไวรัสระบาดกำลังจะถูกเจ้าหน้าที่บุกมาถึงที่พักภายในไม่กี่ชั่วโมงหลังถูกต้องสงสัยว่าติดเชื้อ นิโก จึงต้องรีบเดินทางฝ่ามฤตยูไวรัสล้างโลกนี้พร้อมทำทุกวิถีทางเพื่อช่วยซาร่าให้ได้ก่อนที่ทุกอย่างจะสายเกินไป!!!

Complete name : [MINI Super-HQ]_Songbird.2020.1080p.BrRip.DTS.x264.One2loadup.com.mkv
Format : Matroska
Format version : Version 4
File size : 3.43 GiB
Duration : 1 h 25 min
Overall bit rate : 5 753 kb/s
Movie name : [MINI Super-HQ]_Songbird.2020.1080p.BrRip.DTS.x264.One2loadup.com
Encoded date : UTC 2021-10-25 05:50:43
Writing application : mkvmerge v9.8.0 (‘Kuglblids’) 64bit
Writing library : libebml v1.3.4 + libmatroska v1.4.5

Video
ID : 1
Format : AVC
Format/Info : Advanced Video Codec
Format profile : [email protected]
Format settings : CABAC / 5 Ref Frames
Format settings, CABAC : Yes
Format settings, Reference : 5 frames
Codec ID : V_MPEG4/ISO/AVC
Duration : 1 h 25 min
Bit rate : 4 200 kb/s
Width : 1 920 pixels
Height : 804 pixels
Display aspect ratio : 2.40:1
Frame rate mode : Constant
Frame rate : 23.976 (24000/1001) FPS
Color space : YUV
Chroma subsampling : 4:2:0
Bit depth : 8 bits
Scan type : Progressive
Bits/(Pixel*Frame) : 0.113
Stream size : 2.50 GiB (73%)
Title : [MINI Super-HQ]_Songbird.2020.1080p.BrRip.DTS.x264.One2loadup.com
Writing library : x264 core 157 r2935 545de2f
Encoding settings : cabac=1 / ref=5 / deblock=1:0:0 / analyse=0x3:0x133 / me=tesa / subme=11 / psy=1 / psy_rd=1.00:0.00 / mixed_ref=1 / me_range=24 / chroma_me=1 / trellis=2 / 8x8dct=1 / cqm=0 / deadzone=21,11 / fast_pskip=0 / chroma_qp_offset=-2 / threads=12 / lookahead_threads=3 / sliced_threads=0 / nr=0 / decimate=1 / interlaced=0 / bluray_compat=0 / constrained_intra=0 / bframes=16 / b_pyramid=2 / b_adapt=2 / b_bias=0 / direct=3 / weightb=1 / open_gop=0 / weightp=2 / keyint=240 / keyint_min=24 / scenecut=40 / intra_refresh=0 / rc_lookahead=60 / rc=2pass / mbtree=1 / bitrate=4200 / ratetol=1.0 / qcomp=0.60 / qpmin=0 / qpmax=69 / qpstep=4 / cplxblur=20.0 / qblur=0.5 / vbv_maxrate=62500 / vbv_bufsize=78125 / nal_hrd=none / filler=0 / ip_ratio=1.40 / aq=1:1.00
Default : Yes
Forced : No
Color range : Limited
Color primaries : BT.709
Transfer characteristics : BT.709
Matrix coefficients : BT.709

Audio #1
ID : 2
Format : AC-3
Format/Info : Audio Coding 3
Commercial name : Dolby Digital
Codec ID : A_AC3
Duration : 1 h 25 min
Bit rate mode : Constant
Bit rate : 640 kb/s
Channel(s) : 6 channels
Channel layout : L R C LFE Ls Rs
Sampling rate : 48.0 kHz
Frame rate : 31.250 FPS (1536 SPF)
Compression mode : Lossy
Stream size : 391 MiB (11%)
Title : Thai 5.1 Master
Language : Thai
Service kind : Complete Main
Default : Yes
Forced : Yes

Audio #2
ID : 3
Format : DTS
Format/Info : Digital Theater Systems
Codec ID : A_DTS
Duration : 1 h 25 min
Bit rate mode : Constant
Bit rate : 755 kb/s
Channel(s) : 6 channels
Channel layout : C L R Ls Rs LFE
Sampling rate : 48.0 kHz
Frame rate : 93.750 FPS (512 SPF)
Bit depth : 24 bits
Compression mode : Lossy
Stream size : 461 MiB (13%)
Title : English DTS-5.1
Language : English
Default : No
Forced : No

Text #1
ID : 4
Format : PGS
Codec ID : S_HDMV/PGS
Codec ID/Info : Picture based subtitle format used on BDs/HD-DVDs
Duration : 1 h 24 min
Bit rate : 41.4 kb/s
Count of elements : 2280
Stream size : 25.2 MiB (1%)
Title : Thai 1080p PGS
Language : Thai
Default : Yes
Forced : Yes

Text #2
ID : 5
Format : VobSub
Codec ID : S_VOBSUB
Codec ID/Info : Picture based subtitle format used on DVDs
Duration : 1 h 24 min
Bit rate : 9 835 b/s
Count of elements : 1140
Stream size : 5.98 MiB (0%)
Title : Thai 1080p
Language : Thai
Default : No
Forced : No

Text #3
ID : 6
Format : PGS
Codec ID : S_HDMV/PGS
Codec ID/Info : Picture based subtitle format used on BDs/HD-DVDs
Duration : 1 h 24 min
Bit rate : 39.7 kb/s
Count of elements : 2280
Stream size : 24.1 MiB (1%)
Title : Thai 1080p Out PGS
Language : Thai
Default : No
Forced : No

Text #4
ID : 7
Format : VobSub
Codec ID : S_VOBSUB
Codec ID/Info : Picture based subtitle format used on DVDs
Duration : 1 h 24 min
Bit rate : 9 361 b/s
Count of elements : 1140
Stream size : 5.69 MiB (0%)
Title : Thai 1080p Out
Language : Thai
Default : No
Forced : No

Text #5
ID : 8
Format : VobSub
Codec ID : S_VOBSUB
Codec ID/Info : Picture based subtitle format used on DVDs
Duration : 1 h 24 min
Bit rate : 13.4 kb/s
Count of elements : 1140
Stream size : 8.12 MiB (0%)
Title : Thai 1080p Big [Yellow]
Language : Thai
Default : No
Forced : No

Text #6
ID : 9
Format : PGS
Codec ID : S_HDMV/PGS
Codec ID/Info : Picture based subtitle format used on BDs/HD-DVDs
Duration : 1 h 24 min
Bit rate : 45.7 kb/s
Count of elements : 2601
Stream size : 27.6 MiB (1%)
Title : English PGS
Language : English
Default : No
Forced : No

DOWNLOAD


PART01 |||| PART02 |||| PART03 |||| PART04

PART01 |||| PART02 |||| PART03 |||| PART04

PART01 |||| PART02 |||| PART03 |||| PART04

PART01 |||| PART02 |||| PART03 |||| PART04

PART01 |||| PART02 |||| PART03 |||| PART04


Leave A Reply

อีเมล์ของคุณจะไม่แสดงให้เห็น Your email address will not be published.

%d bloggers like this: