[MINI Super-HQ] Siam Square (2017) สยามสแควร์ [1080p] [NETFLIX] [พากย์ไทย 5.1] [บรรยายไทย + อังกฤษ] [เสียงไทย + ซับไทย] [USERLOAD]

0

โหลดหนัง Siam Square (2017) สยามสแควร์

Siam Square (2017) 113min | Horror | March 29, 2017 (Thailand) Summary: It follows high school kids who get caught up trying to prove the existence of an urban legend but instead backfires completely, and now they're being picked off one by one.
Countries: ThailandLanguages: Thai

เรื่องย่อ Siam Square (2017) สยามสแควร์

กลุ่มนักเรียนช่างสงสัยพยายามถ่ายคลิปหลักฐานเพื่อพิสูจน์ว่ามีผีร้าย แต่ไม่นานเท่าไรก็รู้ตัวว่าเป็นพวกเขาเองต่างหากที่ถูกจับตามองอยู่

Complete name : [MINI Super-HQ]_Siam.Square.2017.1080p.NF.WEB-DL.EAC3.x264.One2loadup.com.mkv
Format : Matroska
Format version : Version 4
File size : 4.06 GiB
Duration : 1 h 47 min
Overall bit rate : 5 400 kb/s
Movie name : [MINI Super-HQ]_Siam.Square.2017.1080p.NF.WEB-DL.EAC3.x264.One2loadup.com
Encoded date : UTC 2020-08-23 13:40:03
Writing application : mkvmerge v49.0.0 (‘Sick Of Losing Soulmates’) 64-bit
Writing library : libebml v1.4.0 + libmatroska v1.6.1

Video
ID : 1
Format : AVC
Format/Info : Advanced Video Codec
Format profile : [email protected]
Format settings : CABAC / 3 Ref Frames
Format settings, CABAC : Yes
Format settings, Reference : 3 frames
Codec ID : V_MPEG4/ISO/AVC
Duration : 1 h 47 min
Bit rate : 4 728 kb/s
Width : 1 920 pixels
Height : 804 pixels
Display aspect ratio : 2.40:1
Frame rate mode : Constant
Frame rate : 25.000 FPS
Color space : YUV
Chroma subsampling : 4:2:0
Bit depth : 8 bits
Scan type : Progressive
Bits/(Pixel*Frame) : 0.123
Stream size : 3.55 GiB (88%)
Title : [MINI Super-HQ]_Siam.Square.2017.1080p.NF.WEB-DL.EAC3.x264.One2loadup.com
Language : Thai
Default : Yes
Forced : No

Audio
ID : 2
Format : E-AC-3
Format/Info : Enhanced AC-3
Commercial name : Dolby Digital Plus
Codec ID : A_EAC3
Duration : 1 h 47 min
Bit rate mode : Constant
Bit rate : 640 kb/s
Channel(s) : 6 channels
Channel layout : L R C LFE Ls Rs
Sampling rate : 48.0 kHz
Frame rate : 31.250 FPS (1536 SPF)
Compression mode : Lossy
Stream size : 493 MiB (12%)
Title : AC-3 Thai
Language : Thai
Service kind : Complete Main
Default : Yes
Forced : No

Text #1
ID : 3
Format : VobSub
Muxing mode : zlib
Codec ID : S_VOBSUB
Codec ID/Info : Picture based subtitle format used on DVDs
Duration : 1 h 42 min
Bit rate : 6 998 b/s
Count of elements : 1075
Stream size : 5.12 MiB (0%)
Title : Sub English 1080p
Language : English
Default : No
Forced : No

Text #2
ID : 4
Format : UTF-8
Codec ID : S_TEXT/UTF8
Codec ID/Info : UTF-8 Plain Text
Duration : 1 h 42 min
Bit rate : 34 b/s
Count of elements : 1075
Stream size : 25.6 KiB (0%)
Title : Sub English SRT
Language : English
Default : No
Forced : No

Text #3
ID : 5
Format : PGS
Muxing mode : zlib
Codec ID : S_HDMV/PGS
Codec ID/Info : Picture based subtitle format used on BDs/HD-DVDs
Duration : 1 h 42 min
Bit rate : 23.2 kb/s
Count of elements : 2150
Stream size : 17.0 MiB (0%)
Title : Sub English PGS
Language : English
Default : Yes
Forced : No

Text #4
ID : 6
Format : VobSub
Muxing mode : zlib
Codec ID : S_VOBSUB
Codec ID/Info : Picture based subtitle format used on DVDs
Duration : 1 h 41 min
Bit rate : 6 594 b/s
Count of elements : 1020
Stream size : 4.81 MiB (0%)
Title : Sub Thai 1080p
Language : Thai
Default : No
Forced : No

Text #5
ID : 7
Format : UTF-8
Codec ID : S_TEXT/UTF8
Codec ID/Info : UTF-8 Plain Text
Duration : 1 h 41 min
Bit rate : 77 b/s
Count of elements : 1020
Stream size : 57.5 KiB (0%)
Title : Sub Thai SRT
Language : Thai
Default : No
Forced : No

Text #6
ID : 8
Format : PGS
Muxing mode : zlib
Codec ID : S_HDMV/PGS
Codec ID/Info : Picture based subtitle format used on BDs/HD-DVDs
Duration : 1 h 41 min
Bit rate : 22.4 kb/s
Count of elements : 2040
Stream size : 16.3 MiB (0%)
Title : Sub Thai PGS
Language : Thai
Default : No
Forced : No

DOWNLOAD


PART01 |||| PART02 |||| PART03 |||| PART04 |||| PART05

PART01 |||| PART02 |||| PART03 |||| PART04 |||| PART05

PART01 |||| PART02 |||| PART03 |||| PART04 |||| PART05

PART01 |||| PART02 |||| PART03 |||| PART04 |||| PART05

PART01 |||| PART02 |||| PART03 |||| PART04 |||| PART05


Leave A Reply

อีเมล์ของคุณจะไม่แสดงให้เห็น Your email address will not be published.

%d bloggers like this: