[MINI Super-HQ] Shazam! (2019) ชาแซม! [1080p] [พากย์ไทย 5.1 + เสียงอังกฤษ DTS] [บรรยายไทย + อังกฤษ] [เสียงไทย + ซับไทย] [OPENLOAD]

0

โหลดหนัง Shazam! (2019) ชาแซม!

Shazam! (2019) 2h 12min | Action, Adventure, Comedy | 5 April 2019 (Canada) Summary: We all have a superhero inside us, it just takes a bit of magic to bring it out. In Billy Batson's case, by shouting out one word - SHAZAM. - this streetwise fourteen-year-old foster kid can turn into the grown-up superhero Shazam.
Countries: USALanguages: English

เรื่องย่อ Shazam! (2019) ชาแซม!

เราทุกคนต่างมีความเป็นซูเปอร์ฮีโร่อยู่ในตัวของเรา มันก็แค่ต้องใช้มนตร์วิเศษสักหน่อยเพื่อที่จะดึงมันออกมาในกรณีของ “บิลลี่ แบทสัน” (แอชเชอร์ แองเจล) นั้นดึงออกมาโดยการตะโกนคำว่า SHAZAM! แล้วจากนั้นเด็กกำพร้าวัย 14 ปีที่ต้องเอาตัวรอดในเมืองใหญ่ก็จะกลายมาเป็นซูเปอร์ฮี โร่วัยผู้ใหญ่ “ชาแซม” (แซ็คคารี่ เลวี่) ซึ่งพลังพิเศษนี้ได้รับการสืบทอดมาจากพ่อมดชราคนหนึ่งเขายังคงความเป็นเด็กน้อยด้วยหัวใจที่ซ่อนอยู่ภายในร่างกายดั่งพระเจ้า ชาแซมจะได้สนุกสนานไปกับตัวของเขาในเวอร์ชั่นผู้ใหญ่ด้วยการทำในสิ่งที่วัยรุ่นคนไหน ๆ ก็อยากจะทำด้วยพลังพิเศษต่าง ๆ แค่สนุกไปกับพวกมัน! เขาบินได้มั้ย? เขามีความสามารถในการ X-ray รึป่าว? เขาสามารถปล่อยลำแสงออกมาจากมือได้หรือไม่? เขาจะก้าวข้ามบทเรียนทางสังคมของเขาไปเลยได้มั้ย? ชาแซมมุ่งมั่นที่จะทดสอบขีดความสามารถของเขา ด้วยความบ้าระห่ำอันแสนสุขของเด็กน้อยคนหนึ่งแต่เขาก็ต้องการที่จะเชี่ยวชาญการใช้พลังเหล่านี้ได้ โดยเร็วเพื่อที่จะไปต่อกรกับพลังอำนาจอันร้ายกาจที่ถูกควบคุมโดย “ดร. แธดิอุส ซิวานา” (มาร์ค สตรอง)!!!

Complete name : [MINI Super-HQ]_ Shazam!.2019.1080p.BrRip.DTS.x264.One2loadup.com.mkv
Format : Matroska
Format version : Version 4
File size : 4.00 GiB
Duration : 2 h 11 min
Overall bit rate : 4 345 kb/s
Movie name : [MINI Super-HQ]_ Shazam!.2019.1080p.BrRip.DTS.x264.One2loadup.com
Encoded date : UTC 2010-02-22 21:41:31
Writing application : mkvmerge v5.9.0 (‘On The Loose’) built on Dec 9 2012 15:37:01
Writing library : libebml v1.3.0 + libmatroska v1.4.0

Video
ID : 1
Format : AVC
Format/Info : Advanced Video Codec
Format profile : [email protected]
Format settings : CABAC / 4 Ref Frames
Format settings, CABAC : Yes
Format settings, ReFrames : 4 frames
Codec ID : V_MPEG4/ISO/AVC
Duration : 2 h 11 min
Bit rate : 3 003 kb/s
Width : 1 920 pixels
Height : 804 pixels
Display aspect ratio : 2.40:1
Frame rate mode : Constant
Frame rate : 23.976 (24000/1001) FPS
Color space : YUV
Chroma subsampling : 4:2:0
Bit depth : 8 bits
Scan type : Progressive
Bits/(Pixel*Frame) : 0.081
Stream size : 2.81 GiB (70%)
Title : [MINI Super-HQ]_ [email protected]
Writing library : x264 core 157 r2935 545de2f
Encoding settings : cabac=1 / ref=3 / deblock=1:0:0 / analyse=0x3:0x133 / me=umh / subme=11 / psy=1 / psy_rd=1.00:0.00 / mixed_ref=1 / me_range=48 / chroma_me=1 / trellis=2 / 8x8dct=1 / cqm=0 / deadzone=21,11 / fast_pskip=0 / chroma_qp_offset=-2 / threads=10 / lookahead_threads=1 / sliced_threads=0 / nr=0 / decimate=1 / interlaced=0 / bluray_compat=0 / constrained_intra=0 / bframes=3 / b_pyramid=2 / b_adapt=2 / b_bias=0 / direct=3 / weightb=1 / open_gop=0 / weightp=2 / keyint=240 / keyint_min=24 / scenecut=40 / intra_refresh=0 / rc_lookahead=60 / rc=2pass / mbtree=1 / bitrate=3003 / ratetol=1.0 / qcomp=0.60 / qpmin=0 / qpmax=69 / qpstep=4 / cplxblur=20.0 / qblur=0.5 / vbv_maxrate=25000 / vbv_bufsize=31250 / nal_hrd=none / filler=0 / ip_ratio=1.40 / aq=1:1.00
Language : English
Default : Yes
Forced : No
Color range : Limited
Color primaries : BT.709
Transfer characteristics : BT.709
Matrix coefficients : BT.709

Audio #1
ID : 2
Format : AC-3
Format/Info : Audio Coding 3
Commercial name : Dolby Digital
Codec ID : A_AC3
Duration : 2 h 11 min
Bit rate mode : Constant
Bit rate : 448 kb/s
Channel(s) : 6 channels
Channel layout : L R C LFE Ls Rs
Sampling rate : 48.0 kHz
Frame rate : 31.250 FPS (1536 SPF)
Bit depth : 16 bits
Compression mode : Lossy
Delay relative to video : -5 ms
Stream size : 422 MiB (10%)
Title : Thai BluRay Master
Language : Thai
Service kind : Complete Main
Default : Yes
Forced : Yes

Audio #2
ID : 3
Format : DTS
Format/Info : Digital Theater Systems
Muxing mode : Header stripping
Codec ID : A_DTS
Duration : 2 h 11 min
Bit rate mode : Constant
Bit rate : 755 kb/s
Channel(s) : 6 channels
Channel layout : C L R Ls Rs LFE
Sampling rate : 48.0 kHz
Frame rate : 93.750 FPS (512 SPF)
Bit depth : 24 bits
Compression mode : Lossy
Delay relative to video : -5 ms
Stream size : 711 MiB (17%)
Title : English DTS
Language : English
Default : No
Forced : No

Text #1
ID : 4
Format : VobSub
Codec ID : S_VOBSUB
Codec ID/Info : Picture based subtitle format used on DVDs
Language : Thai
Default : No
Forced : No

Text #2
ID : 5
Format : VobSub
Codec ID : S_VOBSUB
Codec ID/Info : Picture based subtitle format used on DVDs
Title : Thai 480p From DVD Master
Language : Thai
Default : No
Forced : No

Text #3
ID : 6
Format : VobSub
Codec ID : S_VOBSUB
Codec ID/Info : Picture based subtitle format used on DVDs
Title : Thai 720p
Language : Thai
Default : No
Forced : No

Text #4
ID : 7
Format : VobSub
Codec ID : S_VOBSUB
Codec ID/Info : Picture based subtitle format used on DVDs
Title : Thai 1080p
Language : Thai
Default : No
Forced : No

Text #5
ID : 8
Format : VobSub
Codec ID : S_VOBSUB
Codec ID/Info : Picture based subtitle format used on DVDs
Title : Thai 1080p Yellow
Language : Thai
Default : No
Forced : No

Text #6
ID : 9
Format : VobSub
Codec ID : S_VOBSUB
Codec ID/Info : Picture based subtitle format used on DVDs
Title : Thai 1080p Out
Language : Thai
Default : No
Forced : No

Text #7
ID : 10
Format : VobSub
Codec ID : S_VOBSUB
Codec ID/Info : Picture based subtitle format used on DVDs
Title : Thai 1080p BIG
Language : Thai
Default : No
Forced : No

Text #8
ID : 11
Format : PGS
Codec ID : S_HDMV/PGS
Codec ID/Info : Picture based subtitle format used on BDs/HD-DVDs
Title : Thai PGS BluRay Master
Language : Thai
Default : No
Forced : No

Text #9
ID : 12
Format : PGS
Codec ID : S_HDMV/PGS
Codec ID/Info : Picture based subtitle format used on BDs/HD-DVDs
Title : Thai PGS Out
Language : Thai
Default : No
Forced : No

Text #10
ID : 13
Format : PGS
Codec ID : S_HDMV/PGS
Codec ID/Info : Picture based subtitle format used on BDs/HD-DVDs
Title : English
Language : English
Default : No
Forced : No

Menu
00:00:00.000 : :Chapter 1
00:08:18.790 : :Chapter 2
00:15:11.285 : :Chapter 3
00:25:22.396 : :Chapter 4
00:31:57.624 : :Chapter 5
00:39:00.255 : :Chapter 6
00:50:07.713 : :Chapter 7
01:01:28.810 : :Chapter 8
01:08:51.502 : :Chapter 9
01:16:40.471 : :Chapter 10
01:24:29.356 : :Chapter 11
01:34:00.677 : :Chapter 12
01:43:01.175 : :Chapter 13
01:52:53.850 : :Chapter 14
02:00:44.529 : :Chapter 15

DOWNLOAD


PART01 |||| PART02 |||| PART03 |||| PART04

PART01 |||| PART02 |||| PART03 |||| PART04

PART01 |||| PART02 |||| PART03 |||| PART04

PART01 |||| PART02 |||| PART03 |||| PART04


Leave A Reply

Your email address will not be published.

%d bloggers like this: