[MINI Super-HQ] Shang-Chi and the Legend of the Ten Rings (2021) ชาง-ชี กับตำนานลับเท็นริงส์ [1080p] [พากย์ไทย 5.1 Disney Plus + เสียงอังกฤษ 5.1] [บรรยายไทย + อังกฤษ] [เสียงไทย + ซับไทย] [USERLOAD]

0

โหลดหนัง Shang-Chi and the Legend of the Ten Rings (2021) ชาง-ชี กับตำนานลับเท็นริงส์

Shang-Chi and the Legend of the Ten Rings Action, Adventure, Fantasy, Sci-Fi | September 3, 2021 (United States) Summary: Shang-Chi, the master of weaponry-based Kung Fu, is forced to confront his past after being drawn into the Ten Rings organization.
Countries: United States, AustraliaLanguages: English, Mandarin

เรื่องย่อ Shang-Chi and the Legend of the Ten Rings (2021) ชาง-ชี กับตำนานลับเท็นริงส์

จะพาคุณไปพบกับต้นกำเนิดของซูเปอร์ฮีโร่คนล่าสุดของจักรวาลภาพยนตร์มาร์เวล ชาง-ชี ต้องเผชิญหน้ากับอดีตที่เขาเคยเดินจากมาและเปิดเผยปริศนาแห่งองค์กร Ten Rings ที่ถูกซ่อนไว้ตั้งแต่เส้นเรื่องของ MCU ในภาพยนตร์ Iron Man ภาคแรก

Complete name : [MINI Super-HQ]_Shang-Chi.and.the.Legend.of.the.Ten.Rings.2021.1080p.BluRay.EAC3.x264.THDSNP.One2loadup.com.mkv
Format : Matroska
Format version : Version 4
File size : 4.51 GiB
Duration : 2 h 12 min
Overall bit rate : 4 880 kb/s
Movie name : [MINI Super-HQ]_Shang-Chi.and.the.Legend.of.the.Ten.Rings.2021.1080p.BluRay.EAC3.x264.THDSNP.One2loadup.com
Encoded date : UTC 2021-11-13 00:33:59
Writing application : mkvmerge v61.0.0 (‘So’) 64-bit
Writing library : libebml v1.4.2 + libmatroska v1.6.4

Video
ID : 1
Format : AVC
Format/Info : Advanced Video Codec
Format profile : [email protected]
Format settings : CABAC / 3 Ref Frames
Format settings, CABAC : Yes
Format settings, Reference : 3 frames
Codec ID : V_MPEG4/ISO/AVC
Duration : 2 h 12 min
Bit rate : 4 030 kb/s
Width : 1 920 pixels
Height : 804 pixels
Display aspect ratio : 2.40:1
Frame rate mode : Constant
Frame rate : 23.976 (24000/1001) FPS
Color space : YUV
Chroma subsampling : 4:2:0
Bit depth : 8 bits
Scan type : Progressive
Bits/(Pixel*Frame) : 0.109
Stream size : 3.73 GiB (83%)
Title : [MINI Super-HQ]_Shang-Chi.and.the.Legend.of.the.Ten.Rings.2021.1080p.BluRay.EAC3.x264.THDSNP.One2loadup.com
Language : English
Default : Yes
Forced : No

Audio #1
ID : 2
Format : AC-3
Format/Info : Audio Coding 3
Commercial name : Dolby Digital
Codec ID : A_AC3
Duration : 2 h 12 min
Bit rate mode : Constant
Bit rate : 640 kb/s
Channel(s) : 6 channels
Channel layout : L R C LFE Ls Rs
Sampling rate : 48.0 kHz
Frame rate : 31.250 FPS (1536 SPF)
Compression mode : Lossy
Stream size : 606 MiB (13%)
Language : English
Service kind : Complete Main
Default : No
Forced : No

Audio #2
ID : 3
Format : E-AC-3
Format/Info : Enhanced AC-3
Commercial name : Dolby Digital Plus
Codec ID : A_EAC3
Duration : 2 h 12 min
Bit rate mode : Constant
Bit rate : 192 kb/s
Channel(s) : 6 channels
Channel layout : L R C LFE Ls Rs
Sampling rate : 48.0 kHz
Frame rate : 31.250 FPS (1536 SPF)
Compression mode : Lossy
Stream size : 182 MiB (4%)
Title : Thai 5.1
Language : Thai
Service kind : Complete Main
Default : Yes
Forced : No

Text #1
ID : 4
Format : VobSub
Muxing mode : zlib
Codec ID : S_VOBSUB
Codec ID/Info : Picture based subtitle format used on DVDs
Duration : 2 h 11 min
Bit rate : 7 779 b/s
Count of elements : 1183
Stream size : 7.31 MiB (0%)
Title : Sub Thai 1080p
Language : Thai
Default : No
Forced : No

Text #2
ID : 5
Format : UTF-8
Codec ID : S_TEXT/UTF8
Codec ID/Info : UTF-8 Plain Text
Duration : 2 h 11 min
Bit rate : 82 b/s
Count of elements : 1183
Stream size : 79.0 KiB (0%)
Title : Sub Thai SRT
Language : Thai
Default : No
Forced : No

Text #3
ID : 6
Format : PGS
Muxing mode : zlib
Codec ID : S_HDMV/PGS
Codec ID/Info : Picture based subtitle format used on BDs/HD-DVDs
Duration : 2 h 11 min
Bit rate : 22.2 kb/s
Count of elements : 2366
Stream size : 20.8 MiB (0%)
Title : Sub Thai PGS
Language : Thai
Default : Yes
Forced : No

Text #4
ID : 7
Format : UTF-8
Codec ID : S_TEXT/UTF8
Codec ID/Info : UTF-8 Plain Text
Duration : 2 h 10 min
Bit rate : 39 b/s
Count of elements : 1303
Stream size : 37.6 KiB (0%)
Title : Sub English SRT
Language : English
Default : No
Forced : No

Menu
00:00:00.000 : Chapter 01
00:03:52.857 : Chapter 02
00:09:28.985 : Chapter 03
00:16:17.184 : Chapter 04
00:22:47.491 : Chapter 05
00:31:59.667 : Chapter 06
00:42:49.483 : Chapter 07
00:52:21.054 : Chapter 08
00:56:51.324 : Chapter 09
01:00:35.006 : Chapter 10
01:08:46.122 : Chapter 11
01:15:55.050 : Chapter 12
01:19:51.286 : Chapter 13
01:29:49.675 : Chapter 14
01:36:45.800 : Chapter 15
01:47:00.622 : Chapter 16
01:55:25.293 : Chapter 17
02:00:07.241 : Chapter 18
02:01:46.132 : Chapter 19
02:04:08.858 : Chapter 20
02:10:39.248 : Chapter 21

DOWNLOAD


PART01 |||| PART02 |||| PART03 |||| PART04 |||| PART05

PART01 |||| PART02 |||| PART03 |||| PART04 |||| PART05

PART01 |||| PART02 |||| PART03 |||| PART04 |||| PART05

PART01 |||| PART02 |||| PART03 |||| PART04 |||| PART05

PART01 |||| PART02 |||| PART03 |||| PART04 |||| PART05


Leave A Reply

อีเมล์ของคุณจะไม่แสดงให้เห็น Your email address will not be published.

%d bloggers like this: