[MINI Super-HQ] Shadow in the Cloud (2020) ประจัญบาน อสูรเวหา [1080p] [พากย์ไทย 5.1 + เสียงอังกฤษ DTS] [บรรยายไทย + อังกฤษ] [เสียงไทย + ซับไทย] [DOSYAUPLOAD]

0

โหลดหนัง Shadow in the Cloud (2020) ประจัญบาน อสูรเวหา

Shadow in the Cloud Action, Horror, War | January 1, 2021 (United States) Summary: A female WWII pilot traveling with top secret documents on a B-17 Flying Fortress encounters an evil presence on board the flight.
Countries: New Zealand, United StatesLanguages: English

เรื่องย่อ Shadow in the Cloud (2020) ประจัญบาน อสูรเวหา

ในช่วงสงครามโลกครั้งที่ 2 กัปตันม็อด การ์เร็ตต์ (โคลอี เกรซ มอเรทส์) เข้าร่วมกับลูกเรือชายล้วนประจำเครื่องบินทิ้งระเบิด B-17 พร้อมพัสดุลับสุดยอด เมื่อมีผู้หญิงอยู่ในเที่ยวบินเหล่าลูกเรือทหารชายจะทดสอบการเคลื่อนไหวของเธอโดยที่เธอไม่ทันระวังแทบทุกครั้งแต่ความเฉลียวฉลาดของเธอเอาชนะพวกเขาได้เสมอแต่เหตุการณ์แปลก ๆ และปมเบื้องหลังของเธอกระตุ้นเร้าให้เกิดความหวาดระแวงต่อภารกิจที่แท้จริงของเธอทว่า….ลูกเรือสาวผู้นี้มีอะไรที่ต้องกลัวมากกว่านั้นบางอย่างน่ากลัวที่ซุ่มซ่อนในเงามืดกำลังฉีกสะบั้นที่ใจกลางเครื่องในระหว่างการซุ่มโจมตีทางอากาศที่กำลังจะเกิดขึ้นประกอบกับความชั่วร้ายที่ซ่อนเร้นอยู่ภายใน ม็อด ต้องก้าวข้ามขีดจำกัดของตนเองเพื่อช่วยชีวิตลูกเรือผู้เคราะห์ร้ายและปกป้องพัสดุลึกลับด้วยชีวิต!!!

Complete name : [MINI Super-HQ]_Shadow.in.the.Cloud.2020.1080p.BrRip.DTS.x264.One2loadup.com.mkv
Format : Matroska
Format version : Version 4
File size : 3.72 GiB
Duration : 1 h 23 min
Overall bit rate : 6 396 kb/s
Movie name : [MINI Super-HQ]_Shadow.in.the.Cloud.2020.1080p.BrRip.DTS.x264.One2loadup.com
Encoded date : UTC 2021-11-04 23:42:17
Writing application : mkvmerge v9.8.0 (‘Kuglblids’) 64bit
Writing library : libebml v1.3.4 + libmatroska v1.4.5

Video
ID : 1
Format : AVC
Format/Info : Advanced Video Codec
Format profile : [email protected]
Format settings : CABAC / 4 Ref Frames
Format settings, CABAC : Yes
Format settings, Reference : 4 frames
Codec ID : V_MPEG4/ISO/AVC
Duration : 1 h 23 min
Bit rate : 4 850 kb/s
Width : 1 920 pixels
Height : 804 pixels
Display aspect ratio : 2.40:1
Frame rate mode : Constant
Frame rate : 23.976 (24000/1001) FPS
Color space : YUV
Chroma subsampling : 4:2:0
Bit depth : 8 bits
Scan type : Progressive
Bits/(Pixel*Frame) : 0.131
Stream size : 2.82 GiB (76%)
Title : [MINI Super-HQ]_Shadow.in.the.Cloud.2020.1080p.BrRip.DTS.x264.One2loadup.com
Writing library : x264 core 146 r2538 121396c
Encoding settings : cabac=1 / ref=5 / deblock=1:-3:-3 / analyse=0x3:0x133 / me=tesa / subme=11 / psy=1 / psy_rd=1.00:0.15 / mixed_ref=1 / me_range=48 / chroma_me=1 / trellis=2 / 8x8dct=1 / cqm=0 / deadzone=21,11 / fast_pskip=1 / chroma_qp_offset=-3 / threads=54 / lookahead_threads=4 / sliced_threads=0 / nr=0 / decimate=1 / interlaced=0 / bluray_compat=1 / constrained_intra=0 / bframes=3 / b_pyramid=1 / b_adapt=2 / b_bias=0 / direct=3 / weightb=1 / open_gop=0 / weightp=1 / keyint=250 / keyint_min=1 / scenecut=40 / intra_refresh=0 / rc_lookahead=60 / rc=2pass / mbtree=1 / bitrate=4850 / ratetol=1.0 / qcomp=0.60 / qpmin=0 / qpmax=69 / qpstep=4 / cplxblur=20.0 / qblur=0.5 / ip_ratio=1.40 / aq=1:1.30
Language : English
Default : Yes
Forced : No

Audio #1
ID : 2
Format : AC-3
Format/Info : Audio Coding 3
Commercial name : Dolby Digital
Codec ID : A_AC3
Duration : 1 h 23 min
Bit rate mode : Constant
Bit rate : 640 kb/s
Channel(s) : 6 channels
Channel layout : L R C LFE Ls Rs
Sampling rate : 48.0 kHz
Frame rate : 31.250 FPS (1536 SPF)
Compression mode : Lossy
Stream size : 381 MiB (10%)
Title : Thai 5.1 Master
Language : Thai
Service kind : Complete Main
Default : Yes
Forced : Yes

Audio #2
ID : 3
Format : DTS
Format/Info : Digital Theater Systems
Codec ID : A_DTS
Duration : 1 h 23 min
Bit rate mode : Constant
Bit rate : 755 kb/s
Channel(s) : 6 channels
Channel layout : C L R Ls Rs LFE
Sampling rate : 48.0 kHz
Frame rate : 93.750 FPS (512 SPF)
Bit depth : 24 bits
Compression mode : Lossy
Stream size : 449 MiB (12%)
Title : English DTS-5.1
Language : English
Default : No
Forced : No

Text #1
ID : 4
Format : PGS
Codec ID : S_HDMV/PGS
Codec ID/Info : Picture based subtitle format used on BDs/HD-DVDs
Duration : 1 h 22 min
Bit rate : 38.9 kb/s
Count of elements : 1766
Stream size : 23.0 MiB (1%)
Title : Thai 1080p PGS
Language : Thai
Default : Yes
Forced : Yes

Text #2
ID : 5
Format : VobSub
Codec ID : S_VOBSUB
Codec ID/Info : Picture based subtitle format used on DVDs
Duration : 1 h 22 min
Bit rate : 9 349 b/s
Count of elements : 883
Stream size : 5.54 MiB (0%)
Title : Thai 1080p
Language : Thai
Default : No
Forced : No

Text #3
ID : 6
Format : PGS
Codec ID : S_HDMV/PGS
Codec ID/Info : Picture based subtitle format used on BDs/HD-DVDs
Duration : 1 h 22 min
Bit rate : 37.5 kb/s
Count of elements : 1766
Stream size : 22.2 MiB (1%)
Title : Thai 1080p Out PGS
Language : Thai
Default : No
Forced : No

Text #4
ID : 7
Format : VobSub
Codec ID : S_VOBSUB
Codec ID/Info : Picture based subtitle format used on DVDs
Duration : 1 h 22 min
Bit rate : 8 984 b/s
Count of elements : 883
Stream size : 5.32 MiB (0%)
Title : Thai 1080p Out
Language : Thai
Default : No
Forced : No

Text #5
ID : 8
Format : VobSub
Codec ID : S_VOBSUB
Codec ID/Info : Picture based subtitle format used on DVDs
Duration : 1 h 22 min
Bit rate : 12.7 kb/s
Count of elements : 883
Stream size : 7.52 MiB (0%)
Title : Thai 1080p Big [Yellow]
Language : Thai
Default : No
Forced : No

Text #6
ID : 9
Format : PGS
Codec ID : S_HDMV/PGS
Codec ID/Info : Picture based subtitle format used on BDs/HD-DVDs
Duration : 1 h 16 min
Bit rate : 48.6 kb/s
Count of elements : 3268
Stream size : 26.7 MiB (1%)
Title : English PGS
Language : English
Default : No
Forced : No

Text #7
ID : 10
Format : UTF-8
Codec ID : S_TEXT/UTF8
Codec ID/Info : UTF-8 Plain Text
Duration : 1 h 16 min
Bit rate : 65 b/s
Count of elements : 1101
Stream size : 36.9 KiB (0%)
Title : English SRT
Language : English
Default : No
Forced : No

Menu
00:00:00.000 : en:00:00:00.000
00:05:02.052 : en:00:05:02.052
00:13:46.826 : en:00:13:46.826
00:21:53.562 : en:00:21:53.562
00:27:02.579 : en:00:27:02.579
00:33:59.204 : en:00:33:59.204
00:40:49.656 : en:00:40:49.656
00:47:55.039 : en:00:47:55.039
00:56:19.459 : en:00:56:19.459
01:01:34.274 : en:01:01:34.274
01:07:52.735 : en:01:07:52.735
01:14:39.642 : en:01:14:39.642
01:23:04.188 : en:01:23:04.188

DOWNLOAD


PART01 |||| PART02 |||| PART03 |||| PART04

PART01 |||| PART02 |||| PART03 |||| PART04

PART01 |||| PART02 |||| PART03 |||| PART04

PART01 |||| PART02 |||| PART03 |||| PART04

PART01 |||| PART02 |||| PART03 |||| PART04


Leave A Reply

อีเมล์ของคุณจะไม่แสดงให้เห็น Your email address will not be published.

%d bloggers like this: