[MINI Super-HQ] The Secret Life Of Pets (2016) เรื่องลับแก๊งขนฟู [1080p] [พากย์ไทย 5.1 + เสียงอังกฤษ DTS] [บรรยายไทย + อังกฤษ] [เสียงไทย + ซับไทย] [PANDAFILE]

3

The Secret Life Of Pets (2016) เรื่องลับแก๊งขนฟู

โหลดหนัง The Secret Life Of Pets (2016) เรื่องลับแก๊งขนฟู 

The Secret Life of Pets | July 8, 2016 (United States) Summary: The quiet life of a terrier named Max is upended when his owner takes in Duke, a stray whom Max instantly dislikes.
Countries: United States, JapanLanguages: English

เรื่องย่อ The Secret Life Of Pets (2016) เรื่องลับแก๊งขนฟู

เป็นการบอกเล่าเรื่องราวชวนอมยิ้มกับสารพัดวีรกรรมสุดแสบของแก๊งขนฟู หรือ บรรดาสัตว์เลี้ยงของคุณๆ ทั้งหลาย เมื่อทุกคนไม่อยู่บ้าน ไม่ว่าจะเป็นแอบจ้องจะเขมิบอาหารในตู้เย็น หรือแผนลับปาร์ตี้สุดฮาร์ดคอร์ บอกเลยว่างานนี้ เห็นหน้าตานิ่งๆ ฟูฟ่องไปด้วยความน่ารัก แต่ความแสบนี่ เกินพิกัดเลยนะเออ!!!

Complete name : [MINI Super-HQ]_The.Secret.Life.of.Pets.2016.1080p.BrRip.DTS.x264.One2loadup.com.mkv
Format : Matroska
Format version : Version 4 / Version 2
File size : 3.88 GiB
Duration : 1 h 26 min
Overall bit rate : 6 431 kb/s
Movie name : [MINI Super-HQ]_The.Secret.Life.of.Pets.2016.1080p.BrRip.DTS.x264.One2loadup.com
Encoded date : UTC 2010-02-22 21:41:31
Writing application : mkvmerge v5.9.0 (‘On The Loose’) built on Dec 9 2012 15:37:01
Writing library : libebml v1.3.0 + libmatroska v1.4.0

Video
ID : 1
Format : AVC
Format/Info : Advanced Video Codec
Format profile : [email protected]
Format settings, CABAC : Yes
Format settings, RefFrames : 4 frames
Codec ID : V_MPEG4/ISO/AVC
Duration : 1 h 26 min
Bit rate : 4 959 kb/s
Width : 1 920 pixels
Height : 1 038 pixels
Display aspect ratio : 1.85:1
Frame rate mode : Constant
Frame rate : 23.976 (24000/1001) FPS
Color space : YUV
Chroma subsampling : 4:2:0
Bit depth : 8 bits
Scan type : Progressive
Bits/(Pixel*Frame) : 0.104
Stream size : 2.96 GiB (76%)
Title : [MINI Super-HQ]_The.Secret.Life.of.Pets.2016.1080p.BrRip.DTS.x264.One2loadup.com
Writing library : x264 core 130 r2273 b3065e6
Encoding settings : cabac=1 / ref=3 / deblock=1:0:0 / analyse=0x3:0x113 / me=umh / subme=11 / psy=1 / psy_rd=1.00:0.00 / mixed_ref=1 / me_range=48 / chroma_me=1 / trellis=2 / 8x8dct=1 / cqm=0 / deadzone=21,11 / fast_pskip=1 / chroma_qp_offset=-2 / threads=22 / lookahead_threads=1 / sliced_threads=0 / nr=0 / decimate=1 / interlaced=0 / bluray_compat=0 / constrained_intra=0 / bframes=3 / b_pyramid=2 / b_adapt=1 / b_bias=0 / direct=1 / weightb=1 / open_gop=0 / weightp=2 / keyint=240 / keyint_min=24 / scenecut=40 / intra_refresh=0 / rc_lookahead=40 / rc=2pass / mbtree=1 / bitrate=4959 / ratetol=1.0 / qcomp=0.60 / qpmin=0 / qpmax=69 / qpstep=4 / cplxblur=20.0 / qblur=0.5 / ip_ratio=1.40 / aq=1:1.00
Language : English
Default : Yes
Forced : No
Color range : Limited
Color primaries : BT.709
Transfer characteristics : BT.709
Matrix coefficients : BT.709

Audio #1
ID : 2
Format : AC-3
Format/Info : Audio Coding 3
Format settings, Endianness : Big
Codec ID : A_AC3
Duration : 1 h 26 min
Bit rate mode : Constant
Bit rate : 640 kb/s
Channel(s) : 6 channels
Channel positions : Front: L C R, Side: L R, LFE
Sampling rate : 48.0 kHz
Frame rate : 31.250 FPS (1536 SPF)
Bit depth : 16 bits
Compression mode : Lossy
Stream size : 396 MiB (10%)
Title : Thai BluRay Master
Language : Thai
Service kind : Complete Main
Default : Yes
Forced : Yes

Audio #2
ID : 3
Format : DTS
Format/Info : Digital Theater Systems
Mode : 16
Format settings, Endianness : Big
Codec ID : A_DTS
Duration : 1 h 26 min
Bit rate mode : Constant
Bit rate : 768 kb/s
Channel(s) : 6 channels
Channel positions : Front: L C R, Side: L R, LFE
Sampling rate : 48.0 kHz
Frame rate : 93.750 FPS (512 SPF)
Bit depth : 24 bits
Compression mode : Lossy
Stream size : 475 MiB (12%)
Title : English DTS
Language : English
Default : No
Forced : No

Text #1
ID : 4
Format : VobSub
Codec ID : S_VOBSUB
Codec ID/Info : Picture based subtitle format used on DVDs
Title : Thai 480p
Language : Thai
Default : No
Forced : No

Text #2
ID : 5
Format : VobSub
Codec ID : S_VOBSUB
Codec ID/Info : Picture based subtitle format used on DVDs
Title : Thai 720p
Language : Thai
Default : No
Forced : No

Text #3
ID : 6
Format : VobSub
Codec ID : S_VOBSUB
Codec ID/Info : Picture based subtitle format used on DVDs
Title : Thai 1080p
Language : Thai
Default : Yes
Forced : Yes

Text #4
ID : 7
Format : VobSub
Codec ID : S_VOBSUB
Codec ID/Info : Picture based subtitle format used on DVDs
Title : Thai 1080p Yellow
Language : Thai
Default : No
Forced : No

Text #5
ID : 8
Format : VobSub
Codec ID : S_VOBSUB
Codec ID/Info : Picture based subtitle format used on DVDs
Title : Thai 1080p BIG
Language : Thai
Default : No
Forced : No

Text #6
ID : 9
Format : PGS
Codec ID : S_HDMV/PGS
Codec ID/Info : Picture based subtitle format used on BDs/HD-DVDs
Title : Thai PGS BluRay Master
Language : Thai
Default : No
Forced : No

Text #7
ID : 10
Format : VobSub
Codec ID : S_VOBSUB
Codec ID/Info : Picture based subtitle format used on DVDs
Title : English
Language : English
Default : No
Forced : No

Menu
00:00:00.000 : en:Chapter 1
00:05:05.847 : en:Chapter 2
00:09:24.064 : en:Chapter 3
00:13:18.923 : en:Chapter 4
00:18:03.666 : en:Chapter 5
00:22:14.458 : en:Chapter 6
00:28:51.855 : en:Chapter 7
00:32:54.848 : en:Chapter 8
00:36:55.839 : en:Chapter 9
00:42:27.295 : en:Chapter 10
00:44:46.767 : en:Chapter 11
00:50:21.227 : en:Chapter 12
00:54:45.491 : en:Chapter 13
00:59:34.029 : en:Chapter 14
01:02:36.544 : en:Chapter 15
01:07:12.362 : en:Chapter 16
01:13:06.841 : en:Chapter 17
01:16:04.602 : en:Chapter 18
01:18:48.057 : en:Chapter 19
01:19:58.836 : en:Chapter 20

 

The Secret Life Of Pets (2016) เรื่องลับแก๊งขนฟู

DOWNLOAD


PART01 |||| PART02 |||| PART03 |||| PART04

PART01 |||| PART02 |||| PART03 |||| PART04

PART01 |||| PART02 |||| PART03 |||| PART04

PART01 |||| PART02 |||| PART03 |||| PART04

PART01 |||| PART02 |||| PART03 |||| PART04


3 Comments
  1. naruto says

    อยากได้หนังเรื่องนี้ แต่ไฟล์เสียหมดทุกอันเลย รบกวนช่วย re-up ให้หน่อยได้มั้ยครับ ขอเป็น server ของ mega.nz จะขอบคุณมาก

    1. Admin
      Admin says

      แก้ไขเรียบร้อยฮ๊ะ mega.nz เราไม่ได้อัพเน้อ เนื่องจากมันจำกัดพื้นที่แค่ 50GB เองอะนะ

      1. naruto says

        ขอบคุณมากครับ

Leave A Reply

อีเมล์ของคุณจะไม่แสดงให้เห็น Your email address will not be published.

%d bloggers like this: