[MINI Super-HQ] Scouts Guide to the Zombie Apocalypse (2015) 3 (ลูก) เสือปะทะซอมบี้ [1080p] [พากย์ไทย DTS + เสียงอังกฤษ DTS] [บรรยายไทย + อังกฤษ] [เสียงไทย + ซับไทย] [PANDAFILE

0

โหลดหนัง Scouts Guide to the Zombie Apocalypse (2015) 3 (ลูก) เสือปะทะซอมบี้

Scouts Guide to the Zombie Apocalypse | October 30, 2015 (United States) Summary: Three scouts, on the eve of their last camp-out, discover the true meaning of friendship when they attempt to save their town from a zombie outbreak.
Countries: United StatesLanguages: English

เรื่องย่อ Scouts Guide to the Zombie Apocalypse (2015) 3 (ลูก) เสือปะทะซอมบี้

3 ลูกเสือเพื่อนรักและสาวเสิร์ฟค็อกเทลเลานจ์สุดแสบ ใน Scouts Guide To The Zombie Apocalypse 3 (ลูก) เสือ ปะทะ ซอมบี้ เรื่องราวของลูกเสือ 3 คน ที่กลายมาเป็นฮีโร่ปกป้องเหล่าเพื่อนมนุษย์จากซอมบี้ที่บุกมาทำลายล้างโลกอันแสนสงบสุข โดยใช้ทักษะวิชาลูกเสือที่ได้ร่ำเรียนและฝึกฝนมาต่อสู้ฟาดฟันกับเหล่าซอมบี้!!

Complete name : [MINI Super-HQ]_Scouts.Guide.To.The.Zombie.Apocalypse.2015.1080p.BrRip.DTS.x264.One2loadup.com.mkv
Format : Matroska
Format version : Version 4
File size : 4.12 GiB
Duration : 1 h 32 min
Overall bit rate : 6 354 kb/s
Movie name : [MINI Super-HQ]_Scouts.Guide.To.The.Zombie.Apocalypse.2015.1080p.BrRip.DTS.x264.One2loadup.com
Encoded date : UTC 2018-11-22 02:46:44
Writing application : mkvmerge v25.0.0 (‘Prog Noir’) 64-bit
Writing library : libebml v1.3.6 + libmatroska v1.4.9
Cover : Yes
Attachments : cover.jpg – scouts guide to the zombie apocalypse (2015).jpg

Video
ID : 1
Format : AVC
Format/Info : Advanced Video Codec
Format profile : [email protected]
Format settings : CABAC / 4 Ref Frames
Format settings, CABAC : Yes
Format settings, ReFrames : 4 frames
Codec ID : V_MPEG4/ISO/AVC
Duration : 1 h 32 min
Bit rate : 4 794 kb/s
Width : 1 920 pixels
Height : 800 pixels
Display aspect ratio : 2.40:1
Frame rate mode : Constant
Frame rate : 23.976 FPS
Color space : YUV
Chroma subsampling : 4:2:0
Bit depth : 8 bits
Scan type : Progressive
Bits/(Pixel*Frame) : 0.130
Stream size : 3.10 GiB (75%)
Title : [MINI Super-HQ]_Scouts.Guide.To.The.Zombie.Apocalypse.2015.1080p.BrRip.DTS.x264.One2loadup.com
Writing library : x264 core 146 r2538 121396c
Encoding settings : cabac=1 / ref=4 / deblock=1:-3:-3 / analyse=0x3:0x113 / me=umh / subme=11 / psy=1 / psy_rd=1.00:0.00 / mixed_ref=1 / me_range=64 / chroma_me=1 / trellis=2 / 8x8dct=1 / cqm=0 / deadzone=21,11 / fast_pskip=1 / chroma_qp_offset=-2 / threads=24 / lookahead_threads=2 / sliced_threads=0 / nr=0 / decimate=1 / interlaced=0 / bluray_compat=0 / constrained_intra=0 / bframes=4 / b_pyramid=2 / b_adapt=1 / b_bias=0 / direct=1 / weightb=1 / open_gop=0 / weightp=2 / keyint=250 / keyint_min=23 / scenecut=40 / intra_refresh=0 / rc_lookahead=120 / rc=2pass / mbtree=1 / bitrate=4794 / ratetol=1.0 / qcomp=0.60 / qpmin=0 / qpmax=69 / qpstep=4 / cplxblur=20.0 / qblur=0.5 / vbv_maxrate=99999 / vbv_bufsize=99999 / nal_hrd=none / filler=0 / ip_ratio=1.40 / aq=1:1.00
Language : English
Default : Yes
Forced : No

Audio #1
ID : 2
Format : DTS
Format/Info : Digital Theater Systems
Codec ID : A_DTS
Duration : 1 h 32 min
Bit rate mode : Constant
Bit rate : 768 kb/s
Channel(s) : 6 channels
Channel layout : C L R Ls Rs LFE
Sampling rate : 48.0 kHz
Frame rate : 93.750 FPS (512 SPF)
Bit depth : 24 bits
Compression mode : Lossy
Stream size : 509 MiB (12%)
Title : Thai DTS
Language : Thai
Default : Yes
Forced : Yes

Audio #2
ID : 3
Format : DTS
Format/Info : Digital Theater Systems
Codec ID : A_DTS
Duration : 1 h 32 min
Bit rate mode : Constant
Bit rate : 755 kb/s
Channel(s) : 6 channels
Channel layout : C L R Ls Rs LFE
Sampling rate : 48.0 kHz
Frame rate : 93.750 FPS (512 SPF)
Bit depth : 24 bits
Compression mode : Lossy
Stream size : 501 MiB (12%)
Title : English DTS
Language : English
Default : No
Forced : No

Text #1
ID : 4
Format : VobSub
Muxing mode : zlib
Codec ID : S_VOBSUB
Codec ID/Info : Picture based subtitle format used on DVDs
Duration : 1 h 30 min
Bit rate : 5 460 b/s
Count of elements : 1029
Stream size : 3.54 MiB (0%)
Title : 1080P BD MASTER
Language : Thai
Default : No
Forced : No

Text #2
ID : 5
Format : VobSub
Muxing mode : zlib
Codec ID : S_VOBSUB
Codec ID/Info : Picture based subtitle format used on DVDs
Duration : 1 h 30 min
Bit rate : 5 460 b/s
Count of elements : 1029
Stream size : 3.54 MiB (0%)
Title : 1080P BD YELLOW
Language : Thai
Default : No
Forced : No

Text #3
ID : 6
Format : VobSub
Muxing mode : zlib
Codec ID : S_VOBSUB
Codec ID/Info : Picture based subtitle format used on DVDs
Duration : 1 h 30 min
Bit rate : 5 460 b/s
Count of elements : 1029
Stream size : 3.54 MiB (0%)
Title : 1080P BD UNDER
Language : Thai
Default : No
Forced : No

Text #4
ID : 7
Format : VobSub
Muxing mode : zlib
Codec ID : S_VOBSUB
Codec ID/Info : Picture based subtitle format used on DVDs
Duration : 1 h 30 min
Bit rate : 1 720 b/s
Count of elements : 1029
Stream size : 1.11 MiB (0%)
Title : 480P BD MASTER
Language : Thai
Default : No
Forced : No

Text #5
ID : 8
Format : PGS
Muxing mode : zlib
Codec ID : S_HDMV/PGS
Codec ID/Info : Picture based subtitle format used on BDs/HD-DVDs
Duration : 1 h 30 min
Bit rate : 22.0 kb/s
Count of elements : 2060
Stream size : 14.2 MiB (0%)
Title : BD MASTER
Language : Thai
Default : Yes
Forced : Yes

Text #6
ID : 9
Format : PGS
Muxing mode : zlib
Codec ID : S_HDMV/PGS
Codec ID/Info : Picture based subtitle format used on BDs/HD-DVDs
Duration : 1 h 30 min
Bit rate : 22.0 kb/s
Count of elements : 2058
Stream size : 14.2 MiB (0%)
Title : BD UNDER
Language : Thai
Default : No
Forced : No

Text #7
ID : 10
Format : PGS
Muxing mode : zlib
Codec ID : S_HDMV/PGS
Codec ID/Info : Picture based subtitle format used on BDs/HD-DVDs
Duration : 1 h 26 min
Bit rate : 33.0 kb/s
Count of elements : 2324
Stream size : 20.4 MiB (0%)
Title : BD MASTER
Language : English
Default : No
Forced : No

DOWNLOAD


PART01 |||| PART02 |||| PART03 |||| PART04 |||| PART05

PART01 |||| PART02 |||| PART03 |||| PART04 |||| PART05

PART01 |||| PART02 |||| PART03 |||| PART04 |||| PART05

PART01 |||| PART02 |||| PART03 |||| PART04 |||| PART05

PART01 |||| PART02 |||| PART03 |||| PART04 |||| PART05


Leave A Reply

อีเมล์ของคุณจะไม่แสดงให้เห็น Your email address will not be published.

%d bloggers like this: