[MINI Super-HQ] Red Dawn (2012) หน่วยรบพันธุ์สายฟ้า [1080p] [พากย์ไทย 5.1 + เสียงอังกฤษ 5.1] [บรรยายไทย + อังกฤษ] [เสียงไทย + ซับไทย] [OPENLOAD]

0

Red Dawn (2012)

โหลดหนัง Red Dawn (2012) หน่วยรบพันธุ์สายฟ้า

Red Dawn (2012) 1h 33min | Action, Sci-Fi, Thriller | 21 November 2012 (USA) Summary: A group of teenagers look to save their town from an invasion of North Korean soldiers.
Countries: USALanguages: English, Korean

เรื่องย่อ Red Dawn (2012) หน่วยรบพันธุ์สายฟ้า

RED DAWN “หน่วยรบพันธุ์สายฟ้า” รีเมกมาจากภาพยนตร์เรื่องหนังที่สร้างปรากฏการณ์ให้แก่หนังวัยรุ่นในยุค 80 และ RED DAWN ฉบับปี 2012 ก็ยังคงแบบฉบับของความเกรียน ซ่าส์! สู้ไม่ถอยเอาไว้อย่างเต็มที่ เมื่ออเมริกาถูกจู่โจม โดยกองทัพจากเกาหลีเหนือทุกคนถูกจับเป็นเฉลย ยกเว้นกลุ่มวัยรุ่นกลุ่มหนึ่งที่นำทีมโดย เพียง เจ็ด (คริส เฮมส์เวิร์ธ) นายทหารหนุ่มที่เดินทางกลับมาพักผ่อนที่บ้านแมท (จอช เพ็ค) ควอเตอร์แบ็คทีมฟุตบอลชื่อดังประจำเมืองน้องชายของ โรเบิร์ต (จอช ฮัทเชอร์สัน) เกรียน! ซ่าส์ มือระเบิดจำเป็น พวกเขานำทีมวัยรุ่นที่เหลือเข้าไปในป่าและฝึกการใช้อาวุธสงครามภายใต้ชื่อกลุ่มว่า “วูล์ฟเวอรีน” เพื่อที่จะกลับมาต่อสู้และช่วยคนที่เขารักกลับคืนมา

Complete name : [MINI Super-HQ]_Red.Dawn.2012.1080p.BrRip.AC3.x264.One2loadup.com.mkv
Format : Matroska
Format version : Version 4
File size : 3.90 GiB
Duration : 1 h 33 min
Overall bit rate : 5 974 kb/s
Movie name : [MINI Super-HQ]_Red.Dawn.2012.1080p.BrRip.AC3.x264.One2loadup.com
Encoded date : UTC 2015-01-12 13:19:24
Writing application : mkvmerge v7.0.0 (‘Where We Going’) 32bit built on Jun 9 2014 15:08:34
Writing library : libebml v1.3.0 + libmatroska v1.4.1

Video
ID : 1
Format : AVC
Format/Info : Advanced Video Codec
Format profile : [email protected]
Format settings : CABAC / 5 Ref Frames
Format settings, CABAC : Yes
Format settings, ReFrames : 5 frames
Codec ID : V_MPEG4/ISO/AVC
Duration : 1 h 33 min
Bit rate : 5 192 kb/s
Width : 1 920 pixels
Height : 800 pixels
Display aspect ratio : 2.40:1
Frame rate mode : Constant
Frame rate : 23.976 (24000/1001) FPS
Color space : YUV
Chroma subsampling : 4:2:0
Bit depth : 8 bits
Scan type : Progressive
Bits/(Pixel*Frame) : 0.141
Stream size : 3.37 GiB (87%)
Title : [MINI Super-HQ]_Red.Dawn.2012.1080p.BrRip.AC3.x264.One2loadup.com
Writing library : x264 core 129 r2245 bc13772
Encoding settings : cabac=1 / ref=5 / deblock=1:-3:-3 / analyse=0x3:0x113 / me=umh / subme=10 / psy=1 / psy_rd=1.00:0.00 / mixed_ref=1 / me_range=16 / chroma_me=1 / trellis=2 / 8x8dct=1 / cqm=0 / deadzone=21,11 / fast_pskip=1 / chroma_qp_offset=-2 / threads=12 / lookahead_threads=2 / sliced_threads=0 / nr=0 / decimate=1 / interlaced=0 / bluray_compat=0 / constrained_intra=0 / bframes=3 / b_pyramid=2 / b_adapt=1 / b_bias=0 / direct=1 / weightb=1 / open_gop=0 / weightp=2 / keyint=250 / keyint_min=23 / scenecut=40 / intra_refresh=0 / rc=2pass / mbtree=0 / bitrate=5192 / ratetol=1.0 / qcomp=0.60 / qpmin=0 / qpmax=69 / qpstep=4 / cplxblur=20.0 / qblur=0.5 / ip_ratio=1.40 / pb_ratio=1.30 / aq=1:0.80
Language : English
Default : Yes
Forced : No

Audio #1
ID : 2
Format : AC-3
Format/Info : Audio Coding 3
Commercial name : Dolby Digital
Codec ID : A_AC3
Duration : 1 h 33 min
Bit rate mode : Constant
Bit rate : 384 kb/s
Channel(s) : 6 channels
Channel layout : L R C LFE Ls Rs
Sampling rate : 48.0 kHz
Frame rate : 31.250 FPS (1536 SPF)
Bit depth : 16 bits
Compression mode : Lossy
Stream size : 256 MiB (6%)
Title : Thai AC3 5.1 Ch
Language : Thai
Service kind : Complete Main
Default : Yes
Forced : Yes

Audio #2
ID : 3
Format : AC-3
Format/Info : Audio Coding 3
Commercial name : Dolby Digital
Codec ID : A_AC3
Duration : 1 h 33 min
Bit rate mode : Constant
Bit rate : 384 kb/s
Channel(s) : 6 channels
Channel layout : L R C LFE Ls Rs
Sampling rate : 48.0 kHz
Frame rate : 31.250 FPS (1536 SPF)
Bit depth : 16 bits
Compression mode : Lossy
Stream size : 256 MiB (6%)
Title : English AC3 5.1 Ch
Language : English
Service kind : Complete Main
Default : No
Forced : No

Text #1
ID : 4
Format : VobSub
Muxing mode : zlib
Codec ID : S_VOBSUB
Codec ID/Info : Picture based subtitle format used on DVDs
Duration : 1 h 27 min
Bit rate : 4 012 b/s
Count of elements : 980
Stream size : 2.51 MiB (0%)
Title : Thai 1080p Sarabun
Language : Thai
Default : Yes
Forced : Yes

Text #2
ID : 5
Format : VobSub
Muxing mode : zlib
Codec ID : S_VOBSUB
Codec ID/Info : Picture based subtitle format used on DVDs
Duration : 1 h 27 min
Bit rate : 4 002 b/s
Count of elements : 980
Stream size : 2.50 MiB (0%)
Title : Thai 1080p Angsana
Language : Thai
Default : No
Forced : No

Text #3
ID : 6
Format : VobSub
Muxing mode : zlib
Codec ID : S_VOBSUB
Codec ID/Info : Picture based subtitle format used on DVDs
Duration : 1 h 27 min
Bit rate : 1 437 b/s
Count of elements : 980
Stream size : 920 KiB (0%)
Title : Thai 480p
Language : Thai
Default : No
Forced : No

Text #4
ID : 7
Format : PGS
Muxing mode : zlib
Codec ID : S_HDMV/PGS
Codec ID/Info : Picture based subtitle format used on BDs/HD-DVDs
Duration : 1 h 27 min
Bit rate : 11.2 kb/s
Count of elements : 1960
Stream size : 6.99 MiB (0%)
Title : Thai PGS Sarabun
Language : Thai
Default : No
Forced : No

Text #5
ID : 8
Format : PGS
Muxing mode : zlib
Codec ID : S_HDMV/PGS
Codec ID/Info : Picture based subtitle format used on BDs/HD-DVDs
Duration : 1 h 27 min
Bit rate : 11.3 kb/s
Count of elements : 1960
Stream size : 7.08 MiB (0%)
Title : Thai PGS Angsana
Language : Thai
Default : No
Forced : No

Text #6
ID : 9
Format : UTF-8
Codec ID : S_TEXT/UTF8
Codec ID/Info : UTF-8 Plain Text
Duration : 1 h 27 min
Bit rate : 42 b/s
Count of elements : 962
Stream size : 27.5 KiB (0%)
Title : English SRT
Language : English
Default : No
Forced : No

DOWNLOAD


PART01 |||| PART02 |||| PART03 |||| PART04 |||| PART05

PART01 |||| PART02 |||| PART03 |||| PART04 |||| PART05

PART01 |||| PART02 |||| PART03 |||| PART04 |||| PART05

PART01 |||| PART02 |||| PART03 |||| PART04 |||| PART05


Leave A Reply

Your email address will not be published.

%d bloggers like this: