[MINI Super-HQ] Professor Marston and the Wonder Women (2017) กำเนิดวันเดอร์วูแมน [1080p] [พากย์ไทย 5.1 + เสียงอังกฤษ DTS] [บรรยายไทย + อังกฤษ] [เสียงไทย + ซับไทย] [PANDAFILE]

5

Professor Marston and the Wonder Women (2017) กำเนิดวันเดอร์วูแมน

โหลดหนัง Professor Marston and the Wonder Women (2017) กำเนิดวันเดอร์วูแมน

Professor Marston & the Wonder Women | October 13, 2017 (United States) Summary: The story of psychologist William Moulton Marston, and his polyamorous relationship with his wife and their mistress who would inspire his creation of the superheroine, Wonder Woman.
Countries: United StatesLanguages: English, French

เรื่องย่อ Professor Marston and the Wonder Women (2017) กำเนิดวันเดอร์วูแมน

หนังดัดแปลงมาจากเรื่องจริงของวิลเลี่ยม มอร์ตัน มาร์สตัน ผู้เขียนพล็อตของคอมิกส์วันเดอร์วูแมน หนังพาเราไปสำรวจความรักแบบเราสองสามคนได้อย่างน่าสน ใจมากด้วยพลังการแสดงของสามนักแสดงนำท้ังลุค อีแวนส์ – รีเบคก้า ฮอลล์ และ เบลล่าฮีธโคท ทำให้เราแทบจะละสายตาไปจากพวกเขาบนเจอไม่ได้เลย โดย เฉพาะรีเบคก้าที่รับบทอลิซาเบธ เมียของวิลเลี่ยม ที่หลายๆครั้งเธอเป็นคนปากกับใจไม่ตรงกันความซับซ้อนของมนุษย์ทำให้หนังเรื่องนี้สำรวจไปยังเส ้นแบ่งความรัก ศีลธรรม การนิยามคำว่า “ปกติ” ของมนุษย์ หรือกระทั่งการตีตราของสังคมว่าอะไรเป็นเรื่องถูก หรือ ผิด ทั้งที่จริงแล้วหลายอย่างที่ปรากฏขึ้นในหนังนั้นล้วน แล้วแต่เป็นเรื่องของ “ปัจเจกบุคคล” ทั้งสิ้น

Complete name : [MINI Super-HQ]_Professor.Marston.and.the.Wonder.Women.2017.1080p.BrRip.DTS.x264.One2loadup.com.mkv
Format : Matroska
Format version : Version 4 / Version 2
File size : 3.90 GiB
Duration : 1 h 48 min
Overall bit rate : 5 157 kb/s
Movie name : [MINI Super-HQ]_Professor.Marston.and.the.Wonder.Women.2017.1080p.BrRip.DTS.x264.One2loadup.com
Encoded date : UTC 2010-02-22 21:41:31
Writing application : mkvmerge v5.9.0 (‘On The Loose’) built on Dec 9 2012 15:37:01
Writing library : libebml v1.3.0 + libmatroska v1.4.0

Video
ID : 1
Format : AVC
Format/Info : Advanced Video Codec
Format profile : [email protected]
Format settings, CABAC : Yes
Format settings, RefFrames : 4 frames
Codec ID : V_MPEG4/ISO/AVC
Duration : 1 h 48 min
Bit rate : 3 637 kb/s
Width : 1 920 pixels
Height : 804 pixels
Display aspect ratio : 2.40:1
Frame rate mode : Constant
Frame rate : 23.976 (24000/1001) FPS
Color space : YUV
Chroma subsampling : 4:2:0
Bit depth : 8 bits
Scan type : Progressive
Bits/(Pixel*Frame) : 0.098
Stream size : 2.77 GiB (71%)
Title : [MINI Super-HQ]_Professor.Marston.and.the.Wonder.Women.2017.1080p.BrRip.DTS.x264.One2loadup.com
Writing library : x264 core 130 r2273 b3065e6
Encoding settings : cabac=1 / ref=3 / deblock=1:0:0 / analyse=0x3:0x113 / me=umh / subme=11 / psy=1 / psy_rd=1.00:0.00 / mixed_ref=1 / me_range=48 / chroma_me=1 / trellis=2 / 8x8dct=1 / cqm=0 / deadzone=21,11 / fast_pskip=1 / chroma_qp_offset=-2 / threads=10 / lookahead_threads=1 / sliced_threads=0 / nr=0 / decimate=1 / interlaced=0 / bluray_compat=0 / constrained_intra=0 / bframes=3 / b_pyramid=2 / b_adapt=1 / b_bias=0 / direct=1 / weightb=1 / open_gop=0 / weightp=2 / keyint=240 / keyint_min=24 / scenecut=40 / intra_refresh=0 / rc_lookahead=40 / rc=2pass / mbtree=1 / bitrate=3637 / ratetol=1.0 / qcomp=0.60 / qpmin=0 / qpmax=69 / qpstep=4 / cplxblur=20.0 / qblur=0.5 / ip_ratio=1.40 / aq=1:1.00
Language : English
Default : Yes
Forced : No
Color range : Limited
Color primaries : BT.709
Transfer characteristics : BT.709
Matrix coefficients : BT.709

Audio #1
ID : 2
Format : AC-3
Format/Info : Audio Coding 3
Format settings, Endianness : Big
Codec ID : A_AC3
Duration : 1 h 48 min
Bit rate mode : Constant
Bit rate : 640 kb/s
Channel(s) : 6 channels
Channel positions : Front: L C R, Side: L R, LFE
Sampling rate : 48.0 kHz
Frame rate : 31.250 FPS (1536 SPF)
Bit depth : 16 bits
Compression mode : Lossy
Stream size : 496 MiB (12%)
Title : Thai BluRay Master
Language : Thai
Service kind : Complete Main
Default : Yes
Forced : Yes

Audio #2
ID : 3
Format : DTS
Format/Info : Digital Theater Systems
Mode : 16
Format settings, Endianness : Big
Codec ID : A_DTS
Duration : 1 h 48 min
Bit rate mode : Constant
Bit rate : 755 kb/s
Channel(s) : 6 channels
Channel positions : Front: L C R, Side: L R, LFE
Sampling rate : 48.0 kHz
Frame rate : 93.750 FPS (512 SPF)
Bit depth : 24 bits
Compression mode : Lossy
Stream size : 585 MiB (15%)
Title : English DTS
Language : English
Default : No
Forced : No

Text #1
ID : 4
Format : VobSub
Codec ID : S_VOBSUB
Codec ID/Info : Picture based subtitle format used on DVDs
Language : Thai
Default : Yes
Forced : Yes

Text #2
ID : 5
Format : VobSub
Codec ID : S_VOBSUB
Codec ID/Info : Picture based subtitle format used on DVDs
Title : Thai 480p
Language : Thai
Default : No
Forced : No

Text #3
ID : 6
Format : VobSub
Codec ID : S_VOBSUB
Codec ID/Info : Picture based subtitle format used on DVDs
Title : Thai 720p
Language : Thai
Default : No
Forced : No

Text #4
ID : 7
Format : VobSub
Codec ID : S_VOBSUB
Codec ID/Info : Picture based subtitle format used on DVDs
Title : Thai 1080p
Language : Thai
Default : No
Forced : No

Text #5
ID : 8
Format : VobSub
Codec ID : S_VOBSUB
Codec ID/Info : Picture based subtitle format used on DVDs
Title : Thai 1080p Yellow
Language : Thai
Default : No
Forced : No

Text #6
ID : 9
Format : VobSub
Codec ID : S_VOBSUB
Codec ID/Info : Picture based subtitle format used on DVDs
Title : Thai 1080p Out
Language : Thai
Default : No
Forced : No

Text #7
ID : 10
Format : VobSub
Codec ID : S_VOBSUB
Codec ID/Info : Picture based subtitle format used on DVDs
Title : Thai 1080p BIG
Language : Thai
Default : No
Forced : No

Text #8
ID : 11
Format : PGS
Codec ID : S_HDMV/PGS
Codec ID/Info : Picture based subtitle format used on BDs/HD-DVDs
Title : Thai PGS BluRay Master
Language : Thai
Default : No
Forced : No

Text #9
ID : 12
Format : PGS
Codec ID : S_HDMV/PGS
Codec ID/Info : Picture based subtitle format used on BDs/HD-DVDs
Title : Thai PGS Out
Language : Thai
Default : No
Forced : No

Text #10
ID : 13
Format : PGS
Codec ID : S_HDMV/PGS
Codec ID/Info : Picture based subtitle format used on BDs/HD-DVDs
Title : English
Language : English
Default : No
Forced : No

Menu
00:00:00.000 : en:Chapter 1
00:07:45.506 : en:Chapter 2
00:15:22.338 : en:Chapter 3
00:21:39.965 : en:Chapter 4
00:29:02.907 : en:Chapter 5
00:33:00.520 : en:Chapter 6
00:39:13.017 : en:Chapter 7
00:46:04.386 : en:Chapter 8
00:51:02.976 : en:Chapter 9
00:57:10.093 : en:Chapter 10
01:03:01.152 : en:Chapter 11
01:09:08.477 : en:Chapter 12
01:14:43.228 : en:Chapter 13
01:20:15.936 : en:Chapter 14
01:26:21.551 : en:Chapter 15
01:34:05.389 : en:Chapter 16

 

DOWNLOAD


PART01 |||| PART02 |||| PART03 |||| PART04

PART01 |||| PART02 |||| PART03 |||| PART04

PART01 |||| PART02 |||| PART03 |||| PART04 

PART01 |||| PART02 |||| PART03 |||| PART04


5 Comments
  1. Yuttachai Kosonmontri
    Yuttachai Kosonmontri says

    โหลดไม่ได้ทุกอันเลย

    1. Admin
      Admin says

      แก้ไขเรียบร้อยฮ๊ะ

  2. Captain Barbossa
    Captain Barbossa says

    โหลดไม่ได้ครับ

    1. Admin
      Admin says

      แก้ไขเรียบร้อยฮ๊ะ

      1. Captain Barbossa
        Captain Barbossa says

        ขอบคุณครับ

Leave A Reply

อีเมล์ของคุณจะไม่แสดงให้เห็น Your email address will not be published.

%d bloggers like this: