[MINI Super-HQ] Pride and Prejudice and Zombie (2016) เลดี้ซอมบี้ [1080p] [พากย์ไทย 5.1 + เสียงอังกฤษ DTS] [บรรยายไทย + อังกฤษ] [เสียงไทย + ซับไทย] [PANDAFILE]

0

Pride and Prejudice and Zombie (2016) เลดี้ซอมบี้

โหลดหนัง Pride and Prejudice and Zombie (2016) เลดี้ซอมบี้

Stolz und Vorurteil & Zombies (2016) 1h 48min | Action, Comedy, Fantasy | 9 June 2016 (Germany) Summary: Five sisters in 19th century England must cope with the pressures to marry while protecting themselves from a growing population of zombies.
Countries: USA, UKLanguages: English, Japanese, Chinese

เรื่องย่อ Pride and Prejudice and Zombie (2016) เลดี้ซอมบี้

Pride and Prejudice and Zombie เตรียมกับภาพยนตร์ที่รวมดาราวัยรุ่นที่ครบเครื่องทั้งหน้าตาและความสามารถอย่างคับคั่งไม่ว่าจะเป็นหนุ่มหล่อ ดักลาส บูธ (Romeo & Juliet,Noah) สาวน้อยลิลลี่ เจมส์ (Cinderella) , ซูกิ วอเตอร์เฮาส์ (Love, Rosie, Insurgent) เบลลา ฮีธโคท (Dark Shadows, In Time)การรวมเอาทีมนักแสดงดาวรุ่งที่ครบเครื่องทั้งหน้าตาและความสามารถไว้อย่างคับ จะเกิดอะไรขึ้นเมื่อซอมบี้บุกศตวรรษที่ 19 !

ภาพยนตร์โรแมนติกคอมเมดี้แนวใหม่ที่ดัดแปลงจากวรรณกรรมชื่อก้องระดับโลก กับเรื่องราวที่จะทำให้ทุกคนต้องลุ้นจนขนหัวลุกไปกับ ความรักของพวกเขาประเทศอังกฤษในศตวรรษที่ 19 สาวสวยเอลิซาเบธ เบนเน็ต (ลิลลี่ เจมส์) ที่ต้องวุ่นวายกับปัญหาหัวใจระหว่างเธอและ ดร.ดาร์ซี่ (เซม ไรลีย์) แต่ปัญหานี้ก็ดูเหมือนจะเล็กไปเลย เมื่อจู่ๆก็มีเหล่าซอมบี้ที่เข้ามาบุกประเทศ ซึ่งทาให้อลิซาเบธต้องดิ้นรนต่อสู้เพื่อความรักต่างชนชั้น และเหล่ากองทัพซอมบี้ไปพร้อมๆกัน!!!

Complete name : [MINI Super-HQ]_Pride.and.Prejudice.and.Zombies.2016.1080p.BrRip.DTS.x264.One2loadup.com.mkv
Format : Matroska
Format version : Version 4
File size : 3.97 GiB
Duration : 1 h 47 min
Overall bit rate : 5 279 kb/s
Movie name : [MINI Super-HQ]_Pride.and.Prejudice.and.Zombies.2016.1080p.BrRip.DTS.x264.One2loadup.com
Encoded date : UTC 2010-02-22 21:41:31
Writing application : mkvmerge v5.9.0 (‘On The Loose’) built on Dec 9 2012 15:37:01
Writing library : libebml v1.3.0 + libmatroska v1.4.0

Video
ID : 1
Format : AVC
Format/Info : Advanced Video Codec
Format profile : [email protected]
Format settings : CABAC / 4 Ref Frames
Format settings, CABAC : Yes
Format settings, ReFrames : 4 frames
Codec ID : V_MPEG4/ISO/AVC
Duration : 1 h 47 min
Bit rate : 3 909 kb/s
Width : 1 920 pixels
Height : 800 pixels
Display aspect ratio : 2.40:1
Frame rate mode : Constant
Frame rate : 23.976 (24000/1001) FPS
Color space : YUV
Chroma subsampling : 4:2:0
Bit depth : 8 bits
Scan type : Progressive
Bits/(Pixel*Frame) : 0.106
Stream size : 2.98 GiB (75%)
Title : [MINI Super-HQ]_Pride.and.Prejudice.and.Zombies.2016.1080p.BrRip.DTS.x264.One2loadup.com
Writing library : x264 core 130 r2273 b3065e6
Encoding settings : cabac=1 / ref=4 / deblock=1:0:0 / analyse=0x3:0x113 / me=umh / subme=11 / psy=1 / psy_rd=1.00:0.00 / mixed_ref=1 / me_range=48 / chroma_me=1 / trellis=2 / 8x8dct=1 / cqm=0 / deadzone=21,11 / fast_pskip=1 / chroma_qp_offset=-2 / threads=12 / lookahead_threads=1 / sliced_threads=0 / nr=0 / decimate=1 / interlaced=0 / bluray_compat=0 / constrained_intra=0 / bframes=4 / b_pyramid=2 / b_adapt=2 / b_bias=0 / direct=1 / weightb=1 / open_gop=0 / weightp=2 / keyint=240 / keyint_min=24 / scenecut=40 / intra_refresh=0 / rc_lookahead=40 / rc=2pass / mbtree=1 / bitrate=3909 / ratetol=1.0 / qcomp=0.60 / qpmin=0 / qpmax=69 / qpstep=4 / cplxblur=20.0 / qblur=0.5 / ip_ratio=1.40 / aq=1:1.00
Language : English
Default : Yes
Forced : No
Color range : Limited
Color primaries : BT.709
Transfer characteristics : BT.709
Matrix coefficients : BT.709

Audio #1
ID : 2
Format : AC-3
Format/Info : Audio Coding 3
Commercial name : Dolby Digital
Codec ID : A_AC3
Duration : 1 h 47 min
Bit rate mode : Constant
Bit rate : 448 kb/s
Channel(s) : 6 channels
Channel layout : L R C LFE Ls Rs
Sampling rate : 48.0 kHz
Frame rate : 31.250 FPS (1536 SPF)
Bit depth : 16 bits
Compression mode : Lossy
Stream size : 345 MiB (8%)
Title : Thai DVD Master
Language : Thai
Service kind : Complete Main
Default : Yes
Forced : Yes

Audio #2
ID : 3
Format : DTS
Format/Info : Digital Theater Systems
Codec ID : A_DTS
Duration : 1 h 47 min
Bit rate mode : Constant
Bit rate : 755 kb/s
Channel(s) : 6 channels
Channel layout : C L R Ls Rs LFE
Sampling rate : 48.0 kHz
Frame rate : 93.750 FPS (512 SPF)
Bit depth : 24 bits
Compression mode : Lossy
Stream size : 580 MiB (14%)
Title : English DTS
Language : English
Default : No
Forced : No

Text #1
ID : 4
Format : VobSub
Codec ID : S_VOBSUB
Codec ID/Info : Picture based subtitle format used on DVDs
Title : Thai 480p From DVD Master
Language : Thai
Default : No
Forced : No

Text #2
ID : 5
Format : VobSub
Codec ID : S_VOBSUB
Codec ID/Info : Picture based subtitle format used on DVDs
Title : Thai 720p
Language : Thai
Default : No
Forced : No

Text #3
ID : 6
Format : VobSub
Codec ID : S_VOBSUB
Codec ID/Info : Picture based subtitle format used on DVDs
Title : Thai 1080p
Language : Thai
Default : Yes
Forced : Yes

Text #4
ID : 7
Format : VobSub
Codec ID : S_VOBSUB
Codec ID/Info : Picture based subtitle format used on DVDs
Title : Thai 1080p Yellow
Language : Thai
Default : No
Forced : No

Text #5
ID : 8
Format : VobSub
Codec ID : S_VOBSUB
Codec ID/Info : Picture based subtitle format used on DVDs
Title : Thai 1080p Out
Language : Thai
Default : No
Forced : No

Text #6
ID : 9
Format : VobSub
Codec ID : S_VOBSUB
Codec ID/Info : Picture based subtitle format used on DVDs
Title : Thai 1080p BIG
Language : Thai
Default : No
Forced : No

Text #7
ID : 10
Format : VobSub
Codec ID : S_VOBSUB
Codec ID/Info : Picture based subtitle format used on DVDs
Title : Thai 1080p Out [BIG]
Language : Thai
Default : No
Forced : No

Text #8
ID : 11
Format : PGS
Codec ID : S_HDMV/PGS
Codec ID/Info : Picture based subtitle format used on BDs/HD-DVDs
Title : Thai PGS
Language : Thai
Default : No
Forced : No

Text #9
ID : 12
Format : PGS
Codec ID : S_HDMV/PGS
Codec ID/Info : Picture based subtitle format used on BDs/HD-DVDs
Title : Thai PGS Yellow
Language : Thai
Default : No
Forced : No

Text #10
ID : 13
Format : PGS
Codec ID : S_HDMV/PGS
Codec ID/Info : Picture based subtitle format used on BDs/HD-DVDs
Title : Thai PGS Out
Language : Thai
Default : No
Forced : No

Text #11
ID : 14
Format : VobSub
Codec ID : S_VOBSUB
Codec ID/Info : Picture based subtitle format used on DVDs
Title : English
Language : English
Default : No
Forced : No

Menu
00:00:00.000 : en:Chapter 1
00:06:41.443 : en:Chapter 2
00:11:50.251 : en:Chapter 3
00:17:59.996 : en:Chapter 4
00:24:06.570 : en:Chapter 5
00:31:53.203 : en:Chapter 6
00:37:43.595 : en:Chapter 7
00:44:22.243 : en:Chapter 8
00:52:06.623 : en:Chapter 9
00:59:28.607 : en:Chapter 10
01:05:45.233 : en:Chapter 11
01:11:16.981 : en:Chapter 12
01:18:40.674 : en:Chapter 13
01:25:03.348 : en:Chapter 14
01:30:18.163 : en:Chapter 15
01:35:49.744 : en:Chapter 16

DOWNLOAD


PART01 |||| PART02 |||| PART03 |||| PART04

PART01 |||| PART02 |||| PART03 |||| PART04

PART01 |||| PART02 |||| PART03 |||| PART04

PART01 |||| PART02 |||| PART03 |||| PART04


Leave A Reply

Your email address will not be published.

%d bloggers like this: