[MINI Super-HQ] Polaroid (2019) โพลารอยด์ ถ่ายติดตาย [1080p] [พากย์ไทย 5.1 + เสียงอังกฤษ DTS] [บรรยายไทย + อังกฤษ] [เสียงไทย + ซับไทย] [PANDAFILE]

0

โหลดหนัง Polaroid (2019) โพลารอยด์ ถ่ายติดตาย

Polaroid (2019) 1h 28min | Drama, Horror, Mystery | 10 January 2019 (Germany) Summary: High school loner Bird Fitcher has no idea what dark secrets are tied to the Polaroid camera she finds. It doesn't take long to discover that those who have their picture taken with it, soon die.
Countries: USA, NorwayLanguages: English

เรื่องย่อ Polaroid (2019) โพลารอยด์ ถ่ายติดตาย

คุณกล้าถ่ายรูปหรือเปล่า? หากว่าทุกคนในรูปจะต้องตาย! เบิร์ด ฟิทเชอร์ (แคทรีน เพรสคอตต์) ได้พบกับกล้องโพลารอยด์ตัวหนึ่งในร้านขายของเก่าแต่แล้วเธอกลับพบว่าผู้ที่ถูกถ่ายด้วยกล้องตัวนี้ล้วนแต่จะต้องตายอย่างน่าสยดสยอง เธอและเพื่อน ๆ จึงต้องร่วมมือกันเพื่อหาทางออกจากสถานการณ์นี้ก่อนที่พวกเธอทุกคนจะถูกมันฆ่า!!!

Complete name : [MINI Super-HQ]_Polaroid.2019.1080p.BrRip.DTS.x264.One2loadup.com.mkv
Format : Matroska
Format version : Version 4
File size : 3.90 GiB
Duration : 1 h 27 min
Overall bit rate : 6 339 kb/s
Movie name : [MINI Super-HQ]_Polaroid.2019.1080p.BrRip.DTS.x264.One2loadup.com
Encoded date : UTC 2010-02-22 21:41:31
Writing application : mkvmerge v5.9.0 (‘On The Loose’) built on Dec 9 2012 15:37:01
Writing library : libebml v1.3.0 + libmatroska v1.4.0

Video
ID : 1
Format : AVC
Format/Info : Advanced Video Codec
Format profile : [email protected]
Format settings : CABAC / 4 Ref Frames
Format settings, CABAC : Yes
Format settings, ReFrames : 4 frames
Codec ID : V_MPEG4/ISO/AVC
Duration : 1 h 27 min
Bit rate : 5 005 kb/s
Width : 1 920 pixels
Height : 800 pixels
Display aspect ratio : 2.40:1
Frame rate mode : Constant
Frame rate : 24.000 FPS
Color space : YUV
Chroma subsampling : 4:2:0
Bit depth : 8 bits
Scan type : Progressive
Bits/(Pixel*Frame) : 0.136
Stream size : 3.08 GiB (79%)
Title : [MINI Super-HQ]_Polaroid.2019.1080p.BrRip.DTS.x264.One2loadup.com
Writing library : x264 core 130 r2273 b3065e6
Encoding settings : cabac=1 / ref=3 / deblock=1:0:0 / analyse=0x3:0x113 / me=umh / subme=11 / psy=1 / psy_rd=1.00:0.00 / mixed_ref=1 / me_range=48 / chroma_me=1 / trellis=2 / 8x8dct=1 / cqm=0 / deadzone=21,11 / fast_pskip=1 / chroma_qp_offset=-2 / threads=24 / lookahead_threads=2 / sliced_threads=0 / nr=0 / decimate=1 / interlaced=0 / bluray_compat=0 / constrained_intra=0 / bframes=3 / b_pyramid=2 / b_adapt=1 / b_bias=0 / direct=1 / weightb=1 / open_gop=0 / weightp=2 / keyint=240 / keyint_min=24 / scenecut=40 / intra_refresh=0 / rc_lookahead=40 / rc=2pass / mbtree=1 / bitrate=5005 / ratetol=1.0 / qcomp=0.60 / qpmin=0 / qpmax=69 / qpstep=4 / cplxblur=20.0 / qblur=0.5 / ip_ratio=1.40 / aq=1:1.00
Language : English
Default : Yes
Forced : No
Color range : Limited
Color primaries : BT.709
Transfer characteristics : BT.709
Matrix coefficients : BT.709

Audio #1
ID : 2
Format : AC-3
Format/Info : Audio Coding 3
Commercial name : Dolby Digital
Codec ID : A_AC3
Duration : 1 h 27 min
Bit rate mode : Constant
Bit rate : 448 kb/s
Channel(s) : 6 channels
Channel layout : L R C LFE Ls Rs
Sampling rate : 48.0 kHz
Frame rate : 31.250 FPS (1536 SPF)
Bit depth : 16 bits
Compression mode : Lossy
Delay relative to video : 1 s 0 ms
Stream size : 282 MiB (7%)
Title : Thai DVD Master
Language : Thai
Service kind : Complete Main
Default : Yes
Forced : Yes

Audio #2
ID : 3
Format : DTS
Format/Info : Digital Theater Systems
Codec ID : A_DTS
Duration : 1 h 27 min
Bit rate mode : Constant
Bit rate : 755 kb/s
Channel(s) : 6 channels
Channel layout : C L R Ls Rs LFE
Sampling rate : 48.0 kHz
Frame rate : 93.750 FPS (512 SPF)
Bit depth : 24 bits
Compression mode : Lossy
Stream size : 475 MiB (12%)
Title : English DTS
Language : English
Default : No
Forced : No

Text #1
ID : 4
Format : VobSub
Codec ID : S_VOBSUB
Codec ID/Info : Picture based subtitle format used on DVDs
Title : Thai 720p
Language : Thai
Default : No
Forced : No

Text #2
ID : 5
Format : VobSub
Codec ID : S_VOBSUB
Codec ID/Info : Picture based subtitle format used on DVDs
Title : Thai 1080p
Language : Thai
Default : Yes
Forced : Yes

Text #3
ID : 6
Format : VobSub
Codec ID : S_VOBSUB
Codec ID/Info : Picture based subtitle format used on DVDs
Title : Thai 1080p Yellow
Language : Thai
Default : No
Forced : No

Text #4
ID : 7
Format : VobSub
Codec ID : S_VOBSUB
Codec ID/Info : Picture based subtitle format used on DVDs
Title : Thai 1080p Out
Language : Thai
Default : No
Forced : No

Text #5
ID : 8
Format : VobSub
Codec ID : S_VOBSUB
Codec ID/Info : Picture based subtitle format used on DVDs
Title : Thai 1080p Out [BIG]
Language : Thai
Default : No
Forced : No

Text #6
ID : 9
Format : PGS
Codec ID : S_HDMV/PGS
Codec ID/Info : Picture based subtitle format used on BDs/HD-DVDs
Title : Thai PGS
Default : No
Forced : No

Text #7
ID : 10
Format : PGS
Codec ID : S_HDMV/PGS
Codec ID/Info : Picture based subtitle format used on BDs/HD-DVDs
Title : Thai PGS Yellow
Language : Thai
Default : No
Forced : No

Text #8
ID : 11
Format : PGS
Codec ID : S_HDMV/PGS
Codec ID/Info : Picture based subtitle format used on BDs/HD-DVDs
Title : Thai PGS Out
Language : Thai
Default : No
Forced : No

Text #9
ID : 12
Format : PGS
Codec ID : S_HDMV/PGS
Codec ID/Info : Picture based subtitle format used on BDs/HD-DVDs
Title : English
Language : English
Default : No
Forced : No

Menu
00:00:00.000 : en:Chapter 1
00:07:03.333 : en:Chapter 2
00:12:44.708 : en:Chapter 3
00:20:39.792 : en:Chapter 4
00:27:07.833 : en:Chapter 5
00:30:51.125 : en:Chapter 6
00:34:17.750 : en:Chapter 7
00:39:37.250 : en:Chapter 8
00:44:51.958 : en:Chapter 9
00:48:46.333 : en:Chapter 10
00:53:24.458 : en:Chapter 11
00:59:33.542 : en:Chapter 12
01:07:27.958 : en:Chapter 13
01:12:48.917 : en:Chapter 14
01:17:49.000 : en:Chapter 15
01:23:02.458 : en:Chapter 16

DOWNLOAD


PART01 |||| PART02 |||| PART03 |||| PART04

PART01 |||| PART02 |||| PART03 |||| PART04

PART01 |||| PART02 |||| PART03 |||| PART04

PART01 |||| PART02 |||| PART03 |||| PART04

PART01 |||| PART02 |||| PART03 |||| PART04



Disable Comments
%d bloggers like this: