[MINI Super-HQ] Penguins of Madagascar (2014) เพนกวินจอมป่วน ก๊วนมาดากัสก้า [1080p] [พากย์ไทย 5.1 + เสียงอังกฤษ DTS] [บรรยายไทย + อังกฤษ] [เสียงไทย + ซับไทย] [PANDAFILE]

10

โหลดหนัง Penguins of Madagascar (2014) เพนกวินจอมป่วน ก๊วนมาดากัสก้า

Penguins of Madagascar | November 26, 2014 (United States) Summary: Skipper, Kowalski, Rico and Private join forces with undercover organization The North Wind to stop the villainous Dr. Octavius Brine from destroying the world as we know it.
Countries: United StatesLanguages: English, Italian, Mandarin, Spanish, Armenian

เรื่องย่อ Penguins of Madagascar (2014) เพนกวินจอมป่วน ก๊วนมาดากัสก้า

เรื่องภาคแยกของมาจากเรื่อง Madagascar หลังจากที่เจ้าพวกเพนกวินจอมแยกซีนไปป่วนทั้งสามภาคจนทำให้พวกมันกลายเป็นที่ชื่นชอบของเหล่าคนดูเป็นอย่างมาก และทีมผู้สร้างจึงไม่รอช้ารีบสร้างผลงานให้พวกมันอย่างเต็มที่
ในภาคนี้มีความน่าสนใจเนื่องจากทีมผู้พากษ์นั้นเป็นเ หล่าดาราชื่อดังมากมายอาทิ จอห์น มัลโควิช ผู้ให้เสียงตัวละคร Dave และ เบเนดิกต์ คัมเบอร์แบทช์ พากย์เสียงเป็น Classified และผู้ที่รับหน้าที่กำกับในโปรเจคท์นี้ได้แก่ ไซมอน เจ สมิธและ อิริค ดาร์เนล แน่นอนว่ากลุ่มเพนกวินพวกนี้ก็ยังคงประกอบไปด้วยผู้การสคิปเปอร์, ริกกี้, โควัลสกี้ และไพรเวท เช่นเดิมพวกเขาจะมาจารกรรมข้อมูลลับบางอย่าง ช่วยได้รับการช่วยเหลือจากงานลับระดับชาติเพื่อหยุดยั่งแผนการยึดครองโลกของ ดร.ออคทาเวียส ไบรน์!!!

Complete name : [MINI Super-HQ]_Penguins.of.Madagascar.2014.1080p.BrRip.DTS.x264.One2loadup.com.mkv
Format : Matroska
Format version : Version 4
File size : 3.38 GiB
Duration : 1 h 31 min
Overall bit rate : 5 265 kb/s
Movie name : [MINI Super-HQ]_Penguins.of.Madagascar.2014.1080p.BrRip.DTS.x264.One2loadup.com
Encoded date : UTC 2010-02-22 21:41:31
Writing application : mkvmerge v5.9.0 (‘On The Loose’) built on Dec 9 2012 15:37:01
Writing library : libebml v1.3.0 + libmatroska v1.4.0

Video
ID : 1
Format : AVC
Format/Info : Advanced Video Codec
Format profile : [email protected]
Format settings : CABAC / 4 Ref Frames
Format settings, CABAC : Yes
Format settings, ReFrames : 4 frames
Codec ID : V_MPEG4/ISO/AVC
Duration : 1 h 31 min
Bit rate : 3 958 kb/s
Width : 1 920 pixels
Height : 1 040 pixels
Display aspect ratio : 1.85:1
Frame rate mode : Constant
Frame rate : 23.976 (24000/1001) FPS
Color space : YUV
Chroma subsampling : 4:2:0
Bit depth : 8 bits
Scan type : Progressive
Bits/(Pixel*Frame) : 0.083
Stream size : 2.54 GiB (75%)
Title : [MINI Super-HQ]_Penguins.of.Madagascar.2014.1080p.BrRip.DTS.x264.One2loadup.com
Writing library : x264 core 144 r2525 40bb568
Encoding settings : cabac=1 / ref=4 / deblock=1:0:0 / analyse=0x3:0x133 / me=umh / subme=11 / psy=1 / psy_rd=1.00:0.00 / mixed_ref=1 / me_range=64 / chroma_me=1 / trellis=2 / 8x8dct=1 / cqm=0 / deadzone=21,11 / fast_pskip=1 / chroma_qp_offset=-2 / threads=12 / lookahead_threads=1 / sliced_threads=0 / nr=0 / decimate=1 / interlaced=0 / bluray_compat=0 / constrained_intra=0 / bframes=16 / b_pyramid=2 / b_adapt=1 / b_bias=0 / direct=1 / weightb=1 / open_gop=0 / weightp=2 / keyint=240 / keyint_min=24 / scenecut=40 / intra_refresh=0 / rc_lookahead=125 / rc=crf / mbtree=1 / crf=22.0 / qcomp=0.60 / qpmin=0 / qpmax=69 / qpstep=4 / vbv_maxrate=25000 / vbv_bufsize=31000 / crf_max=0.0 / nal_hrd=none / filler=0 / ip_ratio=1.40 / aq=1:1.30
Language : English
Default : Yes
Forced : No

Audio #1
ID : 2
Format : AC-3
Format/Info : Audio Coding 3
Commercial name : Dolby Digital
Codec ID : A_AC3
Duration : 1 h 31 min
Bit rate mode : Constant
Bit rate : 448 kb/s
Channel(s) : 6 channels
Channel layout : L R C LFE Ls Rs
Sampling rate : 48.0 kHz
Frame rate : 31.250 FPS (1536 SPF)
Bit depth : 16 bits
Compression mode : Lossy
Stream size : 294 MiB (9%)
Title : Thai BluRay Master
Language : Thai
Service kind : Complete Main
Default : Yes
Forced : Yes

Audio #2
ID : 3
Format : DTS
Format/Info : Digital Theater Systems
Codec ID : A_DTS
Duration : 1 h 31 min
Bit rate mode : Constant
Bit rate : 755 kb/s
Channel(s) : 6 channels
Channel layout : C L R Ls Rs LFE
Sampling rate : 48.0 kHz
Frame rate : 93.750 FPS (512 SPF)
Bit depth : 24 bits
Compression mode : Lossy
Stream size : 496 MiB (14%)
Title : English DTS
Language : English
Default : No
Forced : No

Text #1
ID : 4
Format : VobSub
Codec ID : S_VOBSUB
Codec ID/Info : Picture based subtitle format used on DVDs
Title : Thai 480p
Language : Thai
Default : No
Forced : No

Text #2
ID : 5
Format : VobSub
Codec ID : S_VOBSUB
Codec ID/Info : Picture based subtitle format used on DVDs
Title : Thai 720p
Language : Thai
Default : No
Forced : No

Text #3
ID : 6
Format : VobSub
Codec ID : S_VOBSUB
Codec ID/Info : Picture based subtitle format used on DVDs
Title : Thai 1080p BluRay Master
Language : Thai
Default : Yes
Forced : Yes

Text #4
ID : 7
Format : VobSub
Codec ID : S_VOBSUB
Codec ID/Info : Picture based subtitle format used on DVDs
Title : Thai 1080p BluRay Master [BIG]
Language : Thai
Default : No
Forced : No

Text #5
ID : 8
Format : PGS
Codec ID : S_HDMV/PGS
Codec ID/Info : Picture based subtitle format used on BDs/HD-DVDs
Title : Thai PGS BluRay Master
Language : Thai
Default : No
Forced : No

Text #6
ID : 9
Format : UTF-8
Codec ID : S_TEXT/UTF8
Codec ID/Info : UTF-8 Plain Text
Title : English
Language : English
Default : No
Forced : No

Menu
00:00:00.000 : en:00:00:00.000
00:03:38.718 : en:00:03:38.718
00:07:27.739 : en:00:07:27.739
00:09:24.272 : en:00:09:24.272
00:12:10.521 : en:00:12:10.521
00:16:09.302 : en:00:16:09.302
00:19:22.453 : en:00:19:22.453
00:23:05.509 : en:00:23:05.509
00:26:58.659 : en:00:26:58.659
00:29:01.323 : en:00:29:01.323
00:30:36.418 : en:00:30:36.418
00:34:01.206 : en:00:34:01.206
00:38:05.992 : en:00:38:05.992
00:41:31.197 : en:00:41:31.197
00:44:25.162 : en:00:44:25.162
00:46:39.880 : en:00:46:39.880
00:49:12.950 : en:00:49:12.950
00:54:31.560 : en:00:54:31.560
00:56:01.066 : en:00:56:01.066
01:00:04.017 : en:01:00:04.017
01:03:07.242 : en:01:03:07.242
01:06:41.998 : en:01:06:41.998
01:09:52.271 : en:01:09:52.271
01:12:10.409 : en:01:12:10.409
01:14:19.914 : en:01:14:19.914
01:15:59.013 : en:01:15:59.013
01:18:28.162 : en:01:18:28.162
01:20:49.636 : en:01:20:49.636

DOWNLOAD


PART01 |||| PART02 |||| PART03 |||| PART04

PART01 |||| PART02 |||| PART03 |||| PART04

PART01 |||| PART02 |||| PART03 |||| PART04

PART01 |||| PART02 |||| PART03 |||| PART04

PART01 |||| PART02 |||| PART03 |||| PART04


10 Comments
  1. Wirat_1990
    Wirat_1990 says

    โหลดแล้วดูไม่จบครับ ไฟล์เสียรึป่าว

    1. Admin
      Admin says

      ไม่จบยังไงฮ๊ะ เราทดสอบดูแล้วก็ปกติดีนะฮ๊ะ

      1. Train Kuntapong
        Train Kuntapong says

        ดูไม่จบเหมือนกันครับ เหมือนจะไฟล์เสีย

        1. Admin
          Admin says

          มันไม่จบยังไงอะ มันหยุดเล่นช่วงไหน ยังไงคือทดสอบก็ดูได้ปกติ นะฮ๊ะ

  2. Train says

    ไฟล์เสียครับผมก็เป็น

    1. Admin
      Admin says

      มันไม่จบยังไงอะ มันหยุดเล่นช่วงไหน ยังไงคือทดสอบก็ดูได้ปกติ นะฮ๊ะ

  3. Wirat_1990
    Wirat_1990 says

    ต้องโหลดดูเองเลยครับ ถึงจะรู้ว่าเสียมั้ย

    1. Admin
      Admin says

      ลิ้งไหนฮ๊ะที่โหลดแล้วเสีย จริงๆ เราโหลดมาแล้วแยกไฟล์แล้วก็ ทดลองดูแบบตั้งแต่เริ่มจนจบนะฮ๊ะ ก็ปกติ เลยบอกว่าไม่มีปัญหาอะไรเลย

      1. Train Kuntapong
        Train Kuntapong says

        Link VIP Corn File ครับ

        1. Admin
          Admin says

          แอะก็ไม่มีใครบอกว่าลิ้งไหน ตอนนี้แก้ไขให้แล้วฮ๊ะ

Leave A Reply

อีเมล์ของคุณจะไม่แสดงให้เห็น Your email address will not be published.

%d bloggers like this: