[MINI Super-HQ] Our Tapestry of Love (2020) ตลอดมา ตลอดไป คือเธอ [1080p] [พากย์ไทย 5.1 + เสียงญี่ปุ่น DTS] [บรรยายไทย + อังกฤษ] [เสียงไทย + ซับไทย] [DOSYAUPLOAD]

0

โหลดหนัง Our Tapestry of Love (2020) ตลอดมา ตลอดไป คือเธอ

Yarn 130min | Romance | August 21, 2020 (Japan) Summary: Takahashi Ren and Sonoda Aoi are both children of the 1980s having been born in 1989. They met in 2002 and got to know love and lust at that young age through each other. As it so often happ... Read all
Countries: JapanLanguages: Japanese, English

เรื่องย่อ Our Tapestry of Love (2020) ตลอดมา ตลอดไป คือเธอ

“Ito: Tapestry” เล่าเรื่องราวความรักจากยุคเฮย์เซย์สู่เรวะระหว่าง “เร็น” (มาซากิ สุดะ) และ “อาโออิ” (โคมัตสึ นานะ) ที่เกิดในปีเฮย์เซย์ที่ 1 ทั้งคู่รู้จักกันตอนอายุ 13 ที่ฮอกไกโด และเป็นรักแรกของกันและกัน แต่ไม่นานก็ต้องถูกแยกจากกัน เร็นยังคงรออาโออิอยู่ที่ซัปโปโร!!!
ทั้งคู่กลับมาเจอกันอีกครั้งตอนอายุ 21 ที่โตเกียว แต่ด้วยเหตุผลบางอย่างจังหวะความรักของเร็นและอาโออิ ก็ต้องเดินสวนทางกันอีกครั้งจนเวลาล่วงเลยมาในปีเฮย์เซย์สุดท้ายที่ทั้งคู่อายุ 31 ในวันสิ้นปีโชคชะตาจะทำให้พวกเขาได้กลับมาพบกันอีกครั้งไหม!!!
สิ่งหนึ่งที่หนังเรื่องนี้บอกกับเราก็คือ แม้ว่ารักแท้จะไม่ใช่สิ่งที่ได้มาง่ายๆ แต่มันก็มีอยู่จริงและการที่คนสองคนต้องผ่านอุปสรรคมากมายกว่าจะได้มารักกัน มันก็กลับทำให้ความสัมพันธ์นั้นยิ่งมีคุณค่าบางครั้งความห่างไกลก็ไม่ได้ทำให้เรารักใครบางคนน้อยลง แต่มันกลับทำให้เรารักเขามากขึ้นเมื่อความห่างไกลทำให้เราได้มองเห็นอย่างชัดเจนว่าเขามีความหมายกับชีวิตเรามากแค่ไหน!!!

Complete name : [MINI Super-HQ]_Our.Tapestry.of.Love.2020.1080p.BrRip.DTS.x264.One2loadup.com.mkv
Format : Matroska
Format version : Version 4
File size : 4.81 GiB
Duration : 2 h 10 min
Overall bit rate : 5 295 kb/s
Movie name : [MINI Super-HQ]_Our.Tapestry.of.Love.2020.1080p.BrRip.DTS.x264.One2loadup.com
Encoded date : UTC 2021-09-09 20:13:54
Writing application : mkvmerge v9.8.0 (‘Kuglblids’) 64bit
Writing library : libebml v1.3.4 + libmatroska v1.4.5
Attachments : cronospro.otf / STKaiti.ttf

Video
ID : 1
Format : AVC
Format/Info : Advanced Video Codec
Format profile : [email protected]
Format settings : CABAC / 4 Ref Frames
Format settings, CABAC : Yes
Format settings, Reference : 4 frames
Codec ID : V_MPEG4/ISO/AVC
Duration : 2 h 10 min
Bit rate : 4 000 kb/s
Width : 1 920 pixels
Height : 1 036 pixels
Display aspect ratio : 1.85:1
Frame rate mode : Constant
Frame rate : 23.976 (24000/1001) FPS
Color space : YUV
Chroma subsampling : 4:2:0
Bit depth : 8 bits
Scan type : Progressive
Bits/(Pixel*Frame) : 0.084
Stream size : 3.64 GiB (76%)
Title : [MINI Super-HQ]_Our.Tapestry.of.Love.2020.1080p.BrRip.DTS.x264.One2loadup.com
Writing library : x264 core 157 r2935 545de2f
Encoding settings : cabac=1 / ref=4 / deblock=1:0:0 / analyse=0x1:0x131 / me=tesa / subme=11 / psy=1 / psy_rd=1.00:0.00 / mixed_ref=1 / me_range=24 / chroma_me=1 / trellis=2 / 8x8dct=0 / cqm=0 / deadzone=21,11 / fast_pskip=0 / chroma_qp_offset=-2 / threads=12 / lookahead_threads=3 / sliced_threads=0 / nr=0 / decimate=1 / interlaced=0 / bluray_compat=0 / constrained_intra=0 / bframes=16 / b_pyramid=2 / b_adapt=2 / b_bias=0 / direct=3 / weightb=1 / open_gop=0 / weightp=2 / keyint=240 / keyint_min=24 / scenecut=40 / intra_refresh=0 / rc_lookahead=60 / rc=2pass / mbtree=1 / bitrate=4000 / ratetol=1.0 / qcomp=0.60 / qpmin=0 / qpmax=69 / qpstep=4 / cplxblur=20.0 / qblur=0.5 / vbv_maxrate=50000 / vbv_bufsize=62500 / nal_hrd=none / filler=0 / ip_ratio=1.40 / aq=1:1.00
Language : Japanese
Default : Yes
Forced : No
Color range : Limited
Color primaries : BT.709
Transfer characteristics : BT.709
Matrix coefficients : BT.709

Audio #1
ID : 2
Format : AC-3
Format/Info : Audio Coding 3
Commercial name : Dolby Digital
Codec ID : A_AC3
Duration : 2 h 10 min
Bit rate mode : Constant
Bit rate : 448 kb/s
Channel(s) : 6 channels
Channel layout : L R C LFE Ls Rs
Sampling rate : 48.0 kHz
Frame rate : 31.250 FPS (1536 SPF)
Compression mode : Lossy
Stream size : 417 MiB (8%)
Title : Thai DVD Master
Language : Thai
Service kind : Complete Main
Default : Yes
Forced : Yes

Audio #2
ID : 3
Format : DTS
Format/Info : Digital Theater Systems
Codec ID : A_DTS
Duration : 2 h 10 min
Bit rate mode : Constant
Bit rate : 755 kb/s
Channel(s) : 6 channels
Channel layout : C L R Ls Rs LFE
Sampling rate : 48.0 kHz
Frame rate : 93.750 FPS (512 SPF)
Bit depth : 24 bits
Compression mode : Lossy
Stream size : 702 MiB (14%)
Title : Japanese DTS-5.1
Language : Japanese
Default : No
Forced : No

Text #1
ID : 4
Format : PGS
Codec ID : S_HDMV/PGS
Codec ID/Info : Picture based subtitle format used on BDs/HD-DVDs
Duration : 2 h 9 min
Bit rate : 27.9 kb/s
Count of elements : 2342
Stream size : 25.9 MiB (1%)
Title : Thai 1080p PGS
Language : Thai
Default : Yes
Forced : Yes

Text #2
ID : 5
Format : VobSub
Codec ID : S_VOBSUB
Codec ID/Info : Picture based subtitle format used on DVDs
Duration : 2 h 9 min
Bit rate : 6 631 b/s
Count of elements : 1171
Stream size : 6.15 MiB (0%)
Title : Thai 1080p
Language : Thai
Default : No
Forced : No

Text #3
ID : 6
Format : PGS
Codec ID : S_HDMV/PGS
Codec ID/Info : Picture based subtitle format used on BDs/HD-DVDs
Duration : 2 h 9 min
Bit rate : 26.9 kb/s
Count of elements : 2342
Stream size : 25.0 MiB (1%)
Title : Thai 1080p Out PGS
Language : Thai
Default : No
Forced : No

Text #4
ID : 7
Format : VobSub
Codec ID : S_VOBSUB
Codec ID/Info : Picture based subtitle format used on DVDs
Duration : 2 h 9 min
Bit rate : 6 355 b/s
Count of elements : 1171
Stream size : 5.90 MiB (0%)
Title : Thai 1080p Out
Language : Thai
Default : No
Forced : No

Text #5
ID : 8
Format : VobSub
Codec ID : S_VOBSUB
Codec ID/Info : Picture based subtitle format used on DVDs
Duration : 2 h 9 min
Bit rate : 9 013 b/s
Count of elements : 1171
Stream size : 8.36 MiB (0%)
Title : Thai 1080p Big [Yellow]
Language : Thai
Default : No
Forced : No

Text #6
ID : 9
Format : UTF-8
Codec ID : S_TEXT/UTF8
Codec ID/Info : UTF-8 Plain Text
Duration : 2 h 9 min
Bit rate : 37 b/s
Count of elements : 1234
Stream size : 35.6 KiB (0%)
Title : English SRT
Language : English
Default : No
Forced : No

DOWNLOAD


PART01 |||| PART02 |||| PART03 |||| PART04 |||| PART05

PART01 |||| PART02 |||| PART03 |||| PART04 |||| PART05

PART01 |||| PART02 |||| PART03 |||| PART04 |||| PART05

PART01 |||| PART02 |||| PART03 |||| PART04 |||| PART05

PART01 |||| PART02 |||| PART03 |||| PART04 |||| PART05


Leave A Reply

อีเมล์ของคุณจะไม่แสดงให้เห็น Your email address will not be published.

%d bloggers like this: