[MINI Super-HQ] One Cut Of The Dead (2017) วันคัท ซอมบี้ งับๆๆๆ [1080p] [พากย์ไทย 5.1 + เสียงญี่ปุ่น 2.0] [บรรยายไทย + อังกฤษ] [เสียงไทย + ซับไทย] [PANDAFILE]

0

โหลดหนัง One Cut Of The Dead (2017) วันคัท ซอมบี้ งับๆๆๆ

One Cut of the Dead | September 24, 2019 (United States) Summary: Things go badly for a hack director and film crew shooting a low budget zombie movie in an abandoned WWII Japanese facility, when they are attacked by real zombies.
Countries: JapanLanguages: Japanese

เรื่องย่อ One Cut Of The Dead (2017) วันคัท ซอมบี้ งับๆๆๆ

ภาพยนตร์เรื่องนี้เปิดกล้องขึ้น ณ คลังสินค้าแห่งหนึ่ง โดยทีมงานกำลังถ่ายทำภาพยนตร์ซอมบี้ระทึกขวัญ แต่สถานที่แห่งนี้ไม่ใช่คลังสินค้าทั่วไป มีตำนานเล่าว่า… ที่แห่งนี้เป็นที่ตั้งของการทดลองอะไรสักอย่างทางทหารตั้งแต่สงครามโลกครั้งที่ 2 ไม่มีใครรู้ว่า มันคือการทดลองอะไร? ในระหว่างที่ถ่ายทำพวกเขาได้พบกับซอมบี้ที่แท้จริง ทำให้พวกเขาต่างต้องหนีตายเพื่อเอาตัวรอด! เรื่องนี้อาจจะเป็นพล็อตเรื่องหนังซอมบี้ธรรมดา แต่ One Cut of the Dead (Kamera o tomeru na!) หรือ ในชื่อไทย ว่า “วันคัท ซอมบี้งับๆๆๆ” เป็นสิ่งที่สมบูรณ์และแตกต่าง! เริ่มต้นด้วยการถ่ายทำแบบ Non Stop ยาว 37 นาที เป็นภาพยนตร์ที่เปลี่ยนทิศทางและเปลี่ยนแนวภาพยนตร์ซอมบี้ได้อย่างสมบูรณ์จนกลายเป็นภาพยนตร์ที่มีเสน่ห์และดูเป็นตัวเอง!!!

Complete name : [MINI Super-HQ_One.Cut.of.the.Dead.2017.1080p.BrRip.AC3.x264.One2loadup.com.mkv
Format : Matroska
Format version : Version 4
File size : 3.83 GiB
Duration : 1 h 35 min
Overall bit rate : 5 714 kb/s
Movie name : [MINI Super-HQ]_One.Cut.of.the.Dead.2017.1080p.BrRip.AC3.x264.One2loadup.com
Encoded date : UTC 2010-02-22 21:41:31
Writing application : mkvmerge v5.9.0 (‘On The Loose’) built on Dec 9 2012 15:37:01
Writing library : libebml v1.3.0 + libmatroska v1.4.0

Video
ID : 1
Format : AVC
Format/Info : Advanced Video Codec
Format profile : [email protected]
Format settings : CABAC / 4 Ref Frames
Format settings, CABAC : Yes
Format settings, ReFrames : 4 frames
Codec ID : V_MPEG4/ISO/AVC
Duration : 1 h 35 min
Bit rate : 4 546 kb/s
Width : 1 920 pixels
Height : 1 080 pixels
Display aspect ratio : 16:9
Frame rate mode : Constant
Frame rate : 23.976 (24000/1001) FPS
Color space : YUV
Chroma subsampling : 4:2:0
Bit depth : 8 bits
Scan type : Progressive
Bits/(Pixel*Frame) : 0.091
Stream size : 3.03 GiB (79%)
Title : [MINI Super-HQ]_One.Cut.of.the.Dead.2017.1080p.BrRip.AC3.x264.One2loadup.com
Writing library : x264 core 130 r2273 b3065e6
Encoding settings : cabac=1 / ref=3 / deblock=1:0:0 / analyse=0x3:0x113 / me=umh / subme=11 / psy=1 / psy_rd=1.00:0.00 / mixed_ref=1 / me_range=48 / chroma_me=1 / trellis=2 / 8x8dct=1 / cqm=0 / deadzone=21,11 / fast_pskip=1 / chroma_qp_offset=-2 / threads=10 / lookahead_threads=1 / sliced_threads=0 / nr=0 / decimate=1 / interlaced=0 / bluray_compat=0 / constrained_intra=0 / bframes=3 / b_pyramid=2 / b_adapt=1 / b_bias=0 / direct=1 / weightb=1 / open_gop=0 / weightp=2 / keyint=240 / keyint_min=24 / scenecut=40 / intra_refresh=0 / rc_lookahead=40 / rc=2pass / mbtree=1 / bitrate=4546 / ratetol=1.0 / qcomp=0.60 / qpmin=0 / qpmax=69 / qpstep=4 / cplxblur=20.0 / qblur=0.5 / ip_ratio=1.40 / aq=1:1.00
Language : Japanese
Default : Yes
Forced : No
Color range : Limited
Color primaries : BT.709
Transfer characteristics : BT.709
Matrix coefficients : BT.709

Audio #1
ID : 2
Format : AC-3
Format/Info : Audio Coding 3
Commercial name : Dolby Digital
Codec ID : A_AC3
Duration : 1 h 35 min
Bit rate mode : Constant
Bit rate : 448 kb/s
Channel(s) : 6 channels
Channel layout : L R C LFE Ls Rs
Sampling rate : 48.0 kHz
Frame rate : 31.250 FPS (1536 SPF)
Bit depth : 16 bits
Compression mode : Lossy
Stream size : 308 MiB (8%)
Title : Thai DVD Master
Language : Thai
Service kind : Complete Main
Default : Yes
Forced : Yes

Audio #2
ID : 3
Format : AC-3
Format/Info : Audio Coding 3
Commercial name : Dolby Digital
Codec ID : A_AC3
Duration : 1 h 35 min
Bit rate mode : Constant
Bit rate : 640 kb/s
Channel(s) : 2 channels
Channel layout : L R
Sampling rate : 48.0 kHz
Frame rate : 31.250 FPS (1536 SPF)
Bit depth : 16 bits
Compression mode : Lossy
Stream size : 439 MiB (11%)
Title : Japanese AC3
Language : Japanese
Service kind : Complete Main
Default : No
Forced : No

Text #1
ID : 4
Format : VobSub
Codec ID : S_VOBSUB
Codec ID/Info : Picture based subtitle format used on DVDs
Title : Thai 480p From DVD Master
Language : Thai
Default : No
Forced : No

Text #2
ID : 5
Format : VobSub
Codec ID : S_VOBSUB
Codec ID/Info : Picture based subtitle format used on DVDs
Title : Thai 720p
Language : Thai
Default : No
Forced : No

Text #3
ID : 6
Format : VobSub
Codec ID : S_VOBSUB
Codec ID/Info : Picture based subtitle format used on DVDs
Title : Thai 1080p
Language : Thai
Default : Yes
Forced : Yes

Text #4
ID : 7
Format : VobSub
Codec ID : S_VOBSUB
Codec ID/Info : Picture based subtitle format used on DVDs
Title : Thai 1080p Yellow
Language : Thai
Default : No
Forced : No

Text #5
ID : 8
Format : VobSub
Codec ID : S_VOBSUB
Codec ID/Info : Picture based subtitle format used on DVDs
Title : Thai 1080p BIG
Language : Thai
Default : No
Forced : No

Text #6
ID : 9
Format : PGS
Codec ID : S_HDMV/PGS
Codec ID/Info : Picture based subtitle format used on BDs/HD-DVDs
Title : Thai PGS
Language : Thai
Default : No
Forced : No

Text #7
ID : 10
Format : PGS
Codec ID : S_HDMV/PGS
Codec ID/Info : Picture based subtitle format used on BDs/HD-DVDs
Title : Thai PGS Yellow
Language : Thai
Default : No
Forced : No

Text #8
ID : 11
Format : VobSub
Codec ID : S_VOBSUB
Codec ID/Info : Picture based subtitle format used on DVDs
Title : English
Language : English
Default : No
Forced : No

Menu
00:00:00.000 : en:Chapter 1
00:37:17.318 : en:Chapter 2
00:40:11.576 : en:Chapter 3
00:54:22.301 : en:Chapter 4
01:03:08.576 : en:Chapter 5
01:12:45.611 : en:Chapter 6
01:26:39.403 : en:Chapter 7
01:32:36.593 : en:Chapter 8

DOWNLOAD


PART01 |||| PART02 |||| PART03 |||| PART04

PART01 |||| PART02 |||| PART03 |||| PART04

PART01 |||| PART02 |||| PART03 |||| PART04

PART01 |||| PART02 |||| PART03 |||| PART04

PART01 |||| PART02 |||| PART03 |||| PART04


Leave A Reply

อีเมล์ของคุณจะไม่แสดงให้เห็น Your email address will not be published.

%d bloggers like this: