[MINI Super-HQ] Once Upon a Time in Mexico (2003) เพชฌฆาตกระสุนโลกันตร์ [1080p] [พากย์ไทย 5.1 + เสียงอังกฤษ DTS] [บรรยายไทย + อังกฤษ] [เสียงไทย + ซับไทย] [PANDAFILE]

0

โหลดหนัง Once Upon a Time in Mexico (2003) เพชฌฆาตกระสุนโลกันตร์

Once Upon a Time in Mexico | September 12, 2003 (United States) Summary: Hitman "El Mariachi" becomes involved in international espionage involving a psychotic CIA agent and a corrupt Mexican general.
Countries: United StatesLanguages: English, Spanish

เรื่องย่อ Once Upon a Time in Mexico (2003) เพชฌฆาตกระสุนโลกันตร์

เอล มาริอาชิ เป็นนักฆ่าฝีมือสูง สามารถเล่นกีตาร์ได้เท่ห์แปลกแหวกแนวซึ่งถูกนายพลมาร์เกซ (Gerardo Vigil) ฆ่าภรรยา(Salma Hayek) และลูกสาวเขารู้สึกเจ็บปวดใจกับเหตุการณ์นี้เป็นที่สุด เอล มาริอาชิ จึงแยกตัวเองอยู่อย่างสันโดษ แต่แล้ววันหนึ่ง เขาต้องจำใจกลับเข้ามาในสังคมอีกครั้งเพราะแรงกดดันจาก แซนส์ (Johnny depp) สายลับซีไอเอจอมทุจริต โดยจ้างวานให้ไปฆ่านายพลมาร์เกซ และทำลายแผน ของบาริลโล่ (Willem Dafoe)หัวหน้าแก้งค์ยาเสพติด ที่มีลูกสาวสวย (Eva Mendes) เธอเป็นซีไอเอและเป็นสายโจรให้กับพ่อของเธอที่เป็นหัวหน้าค้ายาเสพติด พ่อลูกคู่นี้วางแผนร่วมมือกับนายพลมาร์เกซ ปฎิวัติโค่นล้มฆาตกรรมประธานาธิบดีของเม็กซิโกเอล มาริอาชิ พร้อมกับเพื่อนร่วมงาน 2 คนคือโลเรนโซ่ (Enrique Iglesias)และ ฟิเดโอ (Marco Leonardi) ได้ร่วมกัน กำจัดพวกแก็งค์ยาเสพติดและสังหารนายพลมาร์เกซ หัวหน้าปฎิวัติที่ทำลายบ้านเมือง ตลอดจนช่วยให้ประธานาธิบดีของแม็คซิโกได้รับความปลอดภัยในที่สุด!!

Complete name : [MINI Super-HQ]_Once.Upon.a.Time.in.Mexico.2003.1080p.DTS.BrRip.x264.One2loadup.com.mkv
Format : Matroska
Format version : Version 2
File size : 3.74 GiB
Duration : 1 h 41 min
Overall bit rate : 5 263 kb/s
Movie name : [MINI Super-HQ]_Once.Upon.a.Time.in.Mexico.2003.1080p.DTS.BrRip.x264.One2loadup.com
Encoded date : UTC 2016-07-15 07:56:08
Writing application : mkvmerge v5.0.1 (‘Es ist Sommer’) built on Oct 9 2011 11:55:43
Writing library : libebml v1.2.2 + libmatroska v1.3.0

Video
ID : 1
Format : AVC
Format/Info : Advanced Video Codec
Format profile : [email protected]
Format settings : CABAC / 5 Ref Frames
Format settings, CABAC : Yes
Format settings, ReFrames : 5 frames
Codec ID : V_MPEG4/ISO/AVC
Duration : 1 h 41 min
Bit rate : 3 806 kb/s
Width : 1 920 pixels
Height : 1 080 pixels
Display aspect ratio : 16:9
Frame rate mode : Constant
Frame rate : 23.976 FPS
Color space : YUV
Chroma subsampling : 4:2:0
Bit depth : 8 bits
Scan type : Progressive
Bits/(Pixel*Frame) : 0.077
Stream size : 2.67 GiB (72%)
Title : [MINI Super-HQ]_Once.Upon.a.Time.in.Mexico.2003.1080p.DTS.BrRip.x264.One2loadup.com
Writing library : x264 core 144 r2525 40bb568
Encoding settings : cabac=1 / ref=5 / deblock=1:1:1 / analyse=0x3:0x113 / me=umh / subme=10 / psy=1 / psy_rd=1.00:0.00 / mixed_ref=1 / me_range=32 / chroma_me=1 / trellis=2 / 8x8dct=1 / cqm=0 / deadzone=21,11 / fast_pskip=1 / chroma_qp_offset=-4 / threads=6 / lookahead_threads=1 / sliced_threads=0 / nr=0 / decimate=1 / interlaced=0 / bluray_compat=0 / constrained_intra=0 / bframes=5 / b_pyramid=2 / b_adapt=1 / b_bias=0 / direct=3 / weightb=1 / open_gop=0 / weightp=2 / keyint=250 / keyint_min=23 / scenecut=40 / intra_refresh=0 / rc_lookahead=40 / rc=2pass / mbtree=1 / bitrate=3806 / ratetol=1.0 / qcomp=0.60 / qpmin=0 / qpmax=69 / qpstep=4 / cplxblur=20.0 / qblur=0.5 / vbv_maxrate=14000 / vbv_bufsize=14000 / nal_hrd=none / filler=0 / ip_ratio=1.40 / aq=1:1.00
Default : Yes
Forced : No

Audio #1
ID : 2
Format : AC-3
Format/Info : Audio Coding 3
Commercial name : Dolby Digital
Codec ID : A_AC3
Duration : 1 h 41 min
Bit rate mode : Constant
Bit rate : 640 kb/s
Channel(s) : 6 channels
Channel layout : L R C LFE Ls Rs
Sampling rate : 48.0 kHz
Frame rate : 31.250 FPS (1536 SPF)
Bit depth : 16 bits
Compression mode : Lossy
Stream size : 466 MiB (12%)
Title : THAI BluRay Master 5.1 @ 640 Kbps
Language : Thai
Service kind : Complete Main
Default : Yes
Forced : Yes

Audio #2
ID : 3
Format : DTS
Format/Info : Digital Theater Systems
Codec ID : A_DTS
Duration : 1 h 41 min
Bit rate mode : Constant
Bit rate : 755 kb/s
Channel(s) : 6 channels
Channel layout : C L R Ls Rs LFE
Sampling rate : 48.0 kHz
Frame rate : 93.750 FPS (512 SPF)
Bit depth : 24 bits
Compression mode : Lossy
Stream size : 549 MiB (14%)
Title : ENG DTS 5.1 @ 755 Kbps
Language : English
Default : No
Forced : No

Text #1
ID : 4
Format : VobSub
Codec ID : S_VOBSUB
Codec ID/Info : Picture based subtitle format used on DVDs
Title : THAI 1080p BluRay Master
Language : Thai
Default : Yes
Forced : Yes

Text #2
ID : 5
Format : VobSub
Codec ID : S_VOBSUB
Codec ID/Info : Picture based subtitle format used on DVDs
Title : THAI 1080p Yellow
Language : Thai
Default : No
Forced : No

Text #3
ID : 6
Format : VobSub
Codec ID : S_VOBSUB
Codec ID/Info : Picture based subtitle format used on DVDs
Title : THAI 1080p Out
Language : Thai
Default : No
Forced : No

Text #4
ID : 7
Format : PGS
Codec ID : S_HDMV/PGS
Codec ID/Info : Picture based subtitle format used on BDs/HD-DVDs
Title : THAI PGS 1080p BluRay Master
Language : Thai
Default : No
Forced : No

Text #5
ID : 8
Format : PGS
Codec ID : S_HDMV/PGS
Codec ID/Info : Picture based subtitle format used on BDs/HD-DVDs
Title : THAI PGS 1080p Out
Language : Thai
Default : No
Forced : No

Text #6
ID : 9
Format : PGS
Codec ID : S_HDMV/PGS
Codec ID/Info : Picture based subtitle format used on BDs/HD-DVDs
Title : ENG PGS 1080p BluRay Master
Language : English
Default : No
Forced : No

Menu
00:00:00.000 : :00:00:00.000
00:09:56.346 : :00:09:56.346
00:12:41.094 : :00:12:41.094
00:18:02.290 : :00:18:02.290
00:23:40.628 : :00:23:40.628
00:28:19.948 : :00:28:19.948
00:31:46.780 : :00:31:46.780
00:35:35.508 : :00:35:35.508
00:40:09.407 : :00:40:09.407
00:45:27.975 : :00:45:27.975
00:51:06.814 : :00:51:06.814
00:56:27.593 : :00:56:27.593
01:07:08.733 : :01:07:08.733
01:12:41.148 : :01:12:41.148
01:20:19.064 : :01:20:19.064
01:27:48.472 : :01:27:48.472

DOWNLOAD


PART01 |||| PART02 |||| PART03 |||| PART04

PART01 |||| PART02 |||| PART03 |||| PART04

PART01 |||| PART02 |||| PART03 |||| PART04

PART01 |||| PART02 |||| PART03 |||| PART04

PART01 |||| PART02 |||| PART03 |||| PART04


Leave A Reply

อีเมล์ของคุณจะไม่แสดงให้เห็น Your email address will not be published.

%d bloggers like this: