[MINI Super-HQ] New Gods: Nezha Reborn (2021) นาจา: เกิดอีกครั้งก็ยังเทพ [1080p] [NETFLIX] [พากย์ไทย 5.1 + เสียงจีน 5.1] [บรรยายไทย + จีน + อังกฤษ] [เสียงไทย + ซับไทย] [DOSYAUPLOAD]]

0

โหลดหนัง New Gods: Nezha Reborn (2021) นาจา: เกิดอีกครั้งก็ยังเทพ

Nezha Reborn (2021) 118min | Animation, Action, Fantasy | 12 April 2021 (USA) Summary: The story happens after over 2000 years when Nezha conquered the Dragon King in the novel Fengshen Yanyi. A normal young deliveryman Li Yunxiang, though coming from the slum area, is living... See full summary »
Countries: ChinaLanguages: Mandarin

เรื่องย่อ New Gods: Nezha Reborn (2021) นาจา: เกิดอีกครั้งก็ยังเทพ

นาจาใช้ชีวิตเยี่ยงมนุษย์ปุถุชนและทำงานเป็นเด็กส่งของเขารักการแข่งรถเป็นชีวิตจิตใจ แต่เหล่าศัตรูเก่ายังตามมาผจญ นาจาจึงต้องปลุกพลังที่ซ่อนอยู่ภายในเพื่อปกป้องคนที่รัก

Complete name : [MINI Super-HQ]_New.Gods.Nezha.Reborn.2021.1080p.NF.WEB-DL.EAC2.x264.One2loadup.com.mkv
Format : Matroska
Format version : Version 4
File size : 4.99 GiB
Duration : 1 h 58 min
Overall bit rate mode : Variable
Overall bit rate : 6 047 kb/s
Movie name : [MINI Super-HQ]_New.Gods.Nezha.Reborn.2021.1080p.NF.WEB-DL.EAC2.x264.One2loadup.com
Encoded date : UTC 2021-04-13 11:55:18
Writing application : mkvmerge v56.0.0 (‘Strasbourg / St. Denis’) 64-bit
Writing library : libebml v1.4.2 + libmatroska v1.6.4
Cover : Yes
Attachments : small_cover.jpg / small_cover_land.jpg / cover.jpg / cover_land.jpg

Video
ID : 1
Format : AVC
Format/Info : Advanced Video Codec
Format profile : [email protected]
Format settings : CABAC / 3 Ref Frames
Format settings, CABAC : Yes
Format settings, Reference : 3 frames
Codec ID : V_MPEG4/ISO/AVC
Duration : 1 h 58 min
Bit rate mode : Variable
Bit rate : 4 633 kb/s
Nominal bit rate : 5 979 kb/s
Maximum bit rate : 10.7 Mb/s
Width : 1 920 pixels
Height : 1 080 pixels
Display aspect ratio : 16:9
Frame rate mode : Constant
Frame rate : 24.000 FPS
Color space : YUV
Chroma subsampling : 4:2:0
Bit depth : 8 bits
Scan type : Progressive
Bits/(Pixel*Frame) : 0.093
Stream size : 3.82 GiB (77%)
Title : [MINI Super-HQ]_New.Gods.Nezha.Reborn.2021.1080p.NF.WEB-DL.EAC2.x264.One2loadup.com
Writing library : x264 core 148 r2722 1b0121b
Encoding settings : cabac=1 / ref=3 / deblock=1:0:0 / analyse=0x1:0x111 / me=umh / subme=10 / psy=1 / psy_rd=1.00:0.00 / mixed_ref=1 / me_range=24 / chroma_me=1 / trellis=2 / 8x8dct=0 / cqm=0 / deadzone=21,11 / fast_pskip=1 / chroma_qp_offset=-2 / threads=6 / lookahead_threads=1 / sliced_threads=0 / nr=0 / decimate=1 / interlaced=0 / bluray_compat=0 / stitchable=1 / constrained_intra=0 / bframes=2 / b_pyramid=0 / b_adapt=2 / b_bias=0 / direct=3 / weightb=1 / open_gop=0 / weightp=2 / keyint=250 / keyint_min=24 / scenecut=0 / intra_refresh=0 / rc_lookahead=48 / rc=2pass / mbtree=1 / bitrate=5979 / ratetol=1.0 / qcomp=0.50 / qpmin=6 / qpmax=51 / qpstep=4 / cplxblur=20.0 / qblur=0.5 / vbv_maxrate=10725 / vbv_bufsize=14300 / nal_hrd=vbr / filler=0 / ip_ratio=1.40 / aq=1:1.00
Default : Yes
Forced : No

Audio #1
ID : 2
Format : E-AC-3
Format/Info : Enhanced AC-3
Commercial name : Dolby Digital Plus
Codec ID : A_EAC3
Duration : 1 h 58 min
Bit rate mode : Constant
Bit rate : 640 kb/s
Channel(s) : 6 channels
Channel layout : L R C LFE Ls Rs
Sampling rate : 48.0 kHz
Frame rate : 31.250 FPS (1536 SPF)
Compression mode : Lossy
Stream size : 541 MiB (11%)
Language : Chinese
Service kind : Complete Main
Default : No
Forced : No

Audio #2
ID : 3
Format : AC-3
Format/Info : Audio Coding 3
Commercial name : Dolby Digital
Codec ID : A_AC3
Duration : 1 h 58 min
Bit rate mode : Constant
Bit rate : 640 kb/s
Channel(s) : 6 channels
Channel layout : L R C LFE Ls Rs
Sampling rate : 48.0 kHz
Frame rate : 31.250 FPS (1536 SPF)
Compression mode : Lossy
Stream size : 541 MiB (11%)
Title : THAI AC3 5.1 MASTER
Language : Thai
Service kind : Complete Main
Default : Yes
Forced : No

Text #1
ID : 4
Format : UTF-8
Codec ID : S_TEXT/UTF8
Codec ID/Info : UTF-8 Plain Text
Duration : 1 h 54 min
Bit rate : 37 b/s
Count of elements : 1328
Stream size : 31.9 KiB (0%)
Title : 中文(简体)
Language : Chinese
Default : No
Forced : No

Text #2
ID : 5
Format : UTF-8
Codec ID : S_TEXT/UTF8
Codec ID/Info : UTF-8 Plain Text
Duration : 1 h 54 min
Bit rate : 0 b/s
Count of elements : 24
Stream size : 611 Bytes (0%)
Title : 中文(简体) (Forced)
Language : Chinese
Default : No
Forced : No

Text #3
ID : 6
Format : UTF-8
Codec ID : S_TEXT/UTF8
Codec ID/Info : UTF-8 Plain Text
Duration : 1 h 56 min
Bit rate : 38 b/s
Count of elements : 1330
Stream size : 32.9 KiB (0%)
Title : 中文(繁體)
Language : Chinese
Default : No
Forced : No

Text #4
ID : 7
Format : PGS
Muxing mode : zlib
Codec ID : S_HDMV/PGS
Codec ID/Info : Picture based subtitle format used on BDs/HD-DVDs
Duration : 1 h 54 min
Bit rate : 36.8 kb/s
Count of elements : 2606
Stream size : 30.3 MiB (1%)
Title : ENG PGS
Language : English
Default : No
Forced : No

Text #5
ID : 8
Format : PGS
Muxing mode : zlib
Codec ID : S_HDMV/PGS
Codec ID/Info : Picture based subtitle format used on BDs/HD-DVDs
Duration : 1 h 55 min
Bit rate : 64.0 kb/s
Count of elements : 4324
Stream size : 52.9 MiB (1%)
Title : ENG PGS
Language : English
Default : No
Forced : No

Text #6
ID : 9
Format : PGS
Muxing mode : zlib
Codec ID : S_HDMV/PGS
Codec ID/Info : Picture based subtitle format used on BDs/HD-DVDs
Duration : 1 h 54 min
Bit rate : 36.8 kb/s
Count of elements : 2606
Stream size : 30.3 MiB (1%)
Title : ENG PGS
Language : English
Default : No
Forced : No

Text #7
ID : 10
Format : PGS
Muxing mode : zlib
Codec ID : S_HDMV/PGS
Codec ID/Info : Picture based subtitle format used on BDs/HD-DVDs
Duration : 1 h 55 min
Bit rate : 64.0 kb/s
Count of elements : 4324
Stream size : 52.9 MiB (1%)
Title : ENG PGS
Language : English
Default : No
Forced : No

Text #8
ID : 11
Format : UTF-8
Codec ID : S_TEXT/UTF8
Codec ID/Info : UTF-8 Plain Text
Duration : 1 h 55 min
Bit rate : 65 b/s
Count of elements : 2162
Stream size : 55.7 KiB (0%)
Title : English (SDH)
Language : English
Default : No
Forced : No

Text #9
ID : 12
Format : UTF-8
Codec ID : S_TEXT/UTF8
Codec ID/Info : UTF-8 Plain Text
Duration : 1 h 54 min
Bit rate : 38 b/s
Count of elements : 1303
Stream size : 32.3 KiB (0%)
Title : English
Language : English
Default : No
Forced : No

Text #10
ID : 13
Format : PGS
Muxing mode : zlib
Codec ID : S_HDMV/PGS
Codec ID/Info : Picture based subtitle format used on BDs/HD-DVDs
Duration : 1 h 56 min
Bit rate : 38.3 kb/s
Count of elements : 2708
Stream size : 31.9 MiB (1%)
Title : THAI PGS
Language : Thai
Default : No
Forced : No

Text #11
ID : 14
Format : PGS
Muxing mode : zlib
Codec ID : S_HDMV/PGS
Codec ID/Info : Picture based subtitle format used on BDs/HD-DVDs
Duration : 1 h 56 min
Bit rate : 38.3 kb/s
Count of elements : 2708
Stream size : 31.9 MiB (1%)
Title : THAI PGS
Language : Thai
Default : Yes
Forced : No

Text #12
ID : 15
Format : UTF-8
Codec ID : S_TEXT/UTF8
Codec ID/Info : UTF-8 Plain Text
Duration : 1 h 56 min
Bit rate : 99 b/s
Count of elements : 1354
Stream size : 85.2 KiB (0%)
Title : Thai
Language : Thai
Default : No
Forced : No

DOWNLOAD


PART01 |||| PART02 |||| PART03 |||| PART04 |||| PART05 |||| PART06

PART01 |||| PART02 |||| PART03 |||| PART04 |||| PART05 |||| PART06

PART01 |||| PART02 |||| PART03 |||| PART04 |||| PART05 |||| PART06

PART01 |||| PART02 |||| PART03 |||| PART04 |||| PART05 |||| PART06

PART01 |||| PART02 |||| PART03 |||| PART04 |||| PART05 |||| PART06


Leave A Reply

Your email address will not be published.

%d bloggers like this: