[MINI Super-HQ] Mr. & Mrs. Smith (2005) นายและนางคู่พิฆาต [1080p] [พากย์ไทย 5.1 + เสียงอังกฤษ DTS] [บรรยายไทย + อังกฤษ] [เสียงไทย + ซับไทย] [OPENLOAD]

1

Mr. & Mrs. Smith (2005)

โหลดหนัง Mr. & Mrs. Smith (2005) นายและนางคู่พิฆาต

Mr. & Mrs. Smith (2005) 2h | Action, Comedy, Crime | 10 June 2005 (USA) Summary: A bored married couple is surprised to learn that they are both assassins hired by competing agencies to kill each other.
Countries: USALanguages: English, Spanish

เรื่องย่อ Mr. & Mrs. Smith (2005) นายและนางคู่พิฆาต

จอห์นกับเจน สมิธ เป็นคู่สามีภรรยาธรรมดาๆ ที่มีชีวิตแต่งงานจืดชืดเรียบง่าย ทว่าต่างฝ่ายต่างก็ซ่อนบางอย่างที่อีกฝ่ายถึงกับยอมฆ่าให้ตายเพื่อให้ได้คำตอบ…แท้ที่จริงนายและนางสมิธคือนักสังหารมืออาชีพค่าตัวแพงและทั้งคู่ต่างทำงานให้กับองค์กรที่เป็นคู่แข่งขันนายและนางสมิธค้นพบแหล่งความตื่นเต้นแห่งใหม่ในชีวิตแต่งงาน เมื่อพวกเขาถูกว่าจ้างให้สังหารอีกฝ่ายหนึ่ง และนั่นคือจุดเริ่มต้นของความสนุกที่ทำให้เกิดแอ็คชั่นแห่งสุดยอดความตื่นเต้นเมื่อนายและนางสมิธได้ใช้ฝีมือที่เชี่ยวชาญอย่างหาตัวจับยากของพวกเขาในชีวิตแต่งงานและการทดสอบขั้นสุดยอด!!!

Complete name : [MINI Super-HQ]_Mr.And.Mrs.Smith.2005.1080p.BrRip.DTS.x264.One2loadup.com.mkv
Format : Matroska
Format version : Version 4
File size : 4.33 GiB
Duration : 1 h 59 min
Overall bit rate mode : Variable
Overall bit rate : 5 170 kb/s
Movie name : [MINI Super-HQ]_Mr.And.Mrs.Smith.2005.1080p.BrRip.DTS.x264.One2loadup.com
Encoded date : UTC 2015-05-10 22:23:15
Writing application : mkvmerge v7.8.0 (‘River Man’) 32bit built on Mar 27 2015 16:18:02
Writing library : libebml v1.3.1 + libmatroska v1.4.2
Cover : Yes
Attachments : cover_land.png / cover.png

Video
ID : 1
Format : AVC
Format/Info : Advanced Video Codec
Format profile : [email protected]
Format settings : CABAC / 5 Ref Frames
Format settings, CABAC : Yes
Format settings, ReFrames : 5 frames
Codec ID : V_MPEG4/ISO/AVC
Duration : 1 h 59 min
Bit rate mode : Variable
Bit rate : 3 942 kb/s
Maximum bit rate : 100.0 Mb/s
Width : 1 920 pixels
Height : 816 pixels
Display aspect ratio : 2.35:1
Frame rate mode : Constant
Frame rate : 23.976 (23976/1000) FPS
Color space : YUV
Chroma subsampling : 4:2:0
Bit depth : 8 bits
Scan type : Progressive
Bits/(Pixel*Frame) : 0.105
Stream size : 3.24 GiB (75%)
Title : [MINI Super-HQ]_Mr.And.Mrs.Smith.2005.1080p.BrRip.DTS.x264.One2loadup.com
Writing library : x264 core 130 r2273 b3065e6
Encoding settings : cabac=1 / ref=5 / deblock=1:-3:-3 / analyse=0x3:0x133 / me=umh / subme=11 / psy=1 / psy_rd=1.00:0.15 / mixed_ref=1 / me_range=64 / chroma_me=1 / trellis=2 / 8x8dct=1 / cqm=0 / deadzone=21,11 / fast_pskip=0 / chroma_qp_offset=-3 / threads=16 / lookahead_threads=1 / sliced_threads=0 / nr=0 / decimate=1 / interlaced=0 / bluray_compat=0 / constrained_intra=0 / bframes=5 / b_pyramid=2 / b_adapt=2 / b_bias=0 / direct=3 / weightb=1 / open_gop=0 / weightp=2 / keyint=250 / keyint_min=23 / scenecut=40 / intra_refresh=0 / rc_lookahead=100 / rc=2pass / mbtree=1 / bitrate=3942 / ratetol=1.0 / qcomp=0.60 / qpmin=0 / qpmax=69 / qpstep=4 / cplxblur=20.0 / qblur=0.5 / vbv_maxrate=99999 / vbv_bufsize=99999 / nal_hrd=vbr / ip_ratio=1.40 / aq=1:1.00
Language : English
Default : Yes
Forced : No

Audio #1
ID : 2
Format : AC-3
Format/Info : Audio Coding 3
Commercial name : Dolby Digital
Codec ID : A_AC3
Duration : 1 h 59 min
Bit rate mode : Constant
Bit rate : 448 kb/s
Channel(s) : 6 channels
Channel layout : L R C LFE Ls Rs
Sampling rate : 48.0 kHz
Frame rate : 31.250 FPS (1536 SPF)
Bit depth : 16 bits
Compression mode : Lossy
Stream size : 384 MiB (9%)
Title : AC3 BD MASTER
Language : Thai
Service kind : Complete Main
Default : Yes
Forced : Yes

Audio #2
ID : 3
Format : DTS
Format/Info : Digital Theater Systems
Codec ID : A_DTS
Duration : 1 h 59 min
Bit rate mode : Constant
Bit rate : 755 kb/s
Channel(s) : 6 channels
Channel layout : C L R Ls Rs LFE
Sampling rate : 48.0 kHz
Frame rate : 93.750 FPS (512 SPF)
Bit depth : 24 bits
Compression mode : Lossy
Stream size : 647 MiB (15%)
Title : DTS
Language : English
Default : No
Forced : No

Text #1
ID : 4
Format : VobSub
Codec ID : S_VOBSUB
Codec ID/Info : Picture based subtitle format used on DVDs
Title : 1080P
Language : Thai
Default : Yes
Forced : Yes

Text #2
ID : 5
Format : VobSub
Codec ID : S_VOBSUB
Codec ID/Info : Picture based subtitle format used on DVDs
Title : 1080P UNDER
Language : Thai
Default : No
Forced : No

Text #3
ID : 6
Format : VobSub
Codec ID : S_VOBSUB
Codec ID/Info : Picture based subtitle format used on DVDs
Title : 480P
Language : Thai
Default : No
Forced : No

Text #4
ID : 7
Format : VobSub
Codec ID : S_VOBSUB
Codec ID/Info : Picture based subtitle format used on DVDs
Title : VOB
Language : English
Default : No
Forced : No

Text #5
ID : 8
Format : PGS
Codec ID : S_HDMV/PGS
Codec ID/Info : Picture based subtitle format used on BDs/HD-DVDs
Title : PGS
Language : Thai
Default : No
Forced : No

 

DOWNLOAD


PART01 |||| PART02 |||| PART03 |||| PART04 |||| PART05

PART01 |||| PART02 |||| PART03 |||| PART04 |||| PART05

PART01 |||| PART02 |||| PART03 |||| PART04 |||| PART05

PART01 |||| PART02 |||| PART03 |||| PART04 |||| PART05


1 Comment
  1. Boydm Lion
    Boydm Lion says

    ขอบคุณครับบ

Leave A Reply

Your email address will not be published.

%d bloggers like this: