[MINI Super-HQ] Motherless Brooklyn (2019) สืบกระตุก โค่นอิทธิพลมืด [1080p] [พากย์ไทย 2.0 + เสียงอังกฤษ DTS] [บรรยายไทย + อังกฤษ] [เสียงไทยมาสเตอร์ + ซับไทย] [USERLOAD]

0

โหลดหนัง Motherless Brooklyn (2019) สืบกระตุก โค่นอิทธิพลมืด

Motherless Brooklyn (2019) 144min | Crime, Drama, Mystery | November 1, 2019 (United States) Summary: In 1950s New York, a lonely private detective afflicted with Tourette's Syndrome ventures to solve the murder of his mentor and only friend.
Countries: United StatesLanguages: English, French

เรื่องย่อ Motherless Brooklyn (2019) สืบกระตุก โค่นอิทธิพลมืด

ผลงานดราม่าอาชญากรรมกับการกลับคืนสู่สังเวียนผู้กำกับอีกครั้งในรอบสิบกว่าปีของ Edward Norton ที่รับหน้าที่ร่วมแสดงกับ Bruce Willis เล่าเรื่องราวของนักสืบที่ต้องต่อสู้กับอาการป่วยของตัวเองในช่วงตามสืบปริศนาฆาตกรรมคนใกล้ชิดของเขา!!!

Complete name : [MINI Super-HQ]_Motherless.Brooklyn.2019.1080p.BrRip.DTS.x264.THM.One2loadup.com.mkv
Format : Matroska
Format version : Version 4
File size : 4.55 GiB
Duration : 2 h 24 min
Overall bit rate : 4 512 kb/s
Movie name : [MINI Super-HQ]_Motherless.Brooklyn.2019.1080p.BrRip.DTS.x264.THM.One2loadup.com
Encoded date : UTC 2021-08-11 07:00:36
Writing application : mkvmerge v9.8.0 (‘Kuglblids’) 64bit
Writing library : libebml v1.3.4 + libmatroska v1.4.5

Video
ID : 1
Format : AVC
Format/Info : Advanced Video Codec
Format profile : [email protected]
Format settings : CABAC / 4 Ref Frames
Format settings, CABAC : Yes
Format settings, Reference : 4 frames
Codec ID : V_MPEG4/ISO/AVC
Duration : 2 h 24 min
Bit rate : 3 172 kb/s
Width : 1 920 pixels
Height : 1 036 pixels
Display aspect ratio : 1.85:1
Frame rate mode : Constant
Frame rate : 23.976 (24000/1001) FPS
Color space : YUV
Chroma subsampling : 4:2:0
Bit depth : 8 bits
Scan type : Progressive
Bits/(Pixel*Frame) : 0.067
Stream size : 3.20 GiB (70%)
Title : [MINI Super-HQ]_Motherless.Brooklyn.2019.1080p.BrRip.DTS.x264.THM.One2loadup.com
Writing library : x264 core 146 r2538 121396c
Encoding settings : cabac=1 / ref=5 / deblock=1:-3:-3 / analyse=0x3:0x133 / me=tesa / subme=11 / psy=1 / psy_rd=1.00:0.15 / mixed_ref=1 / me_range=48 / chroma_me=1 / trellis=2 / 8x8dct=1 / cqm=0 / deadzone=21,11 / fast_pskip=1 / chroma_qp_offset=-3 / threads=54 / lookahead_threads=4 / sliced_threads=0 / nr=0 / decimate=1 / interlaced=0 / bluray_compat=1 / constrained_intra=0 / bframes=3 / b_pyramid=1 / b_adapt=2 / b_bias=0 / direct=3 / weightb=1 / open_gop=0 / weightp=1 / keyint=250 / keyint_min=1 / scenecut=40 / intra_refresh=0 / rc_lookahead=60 / rc=2pass / mbtree=1 / bitrate=3172 / ratetol=1.0 / qcomp=0.60 / qpmin=0 / qpmax=69 / qpstep=4 / cplxblur=20.0 / qblur=0.5 / ip_ratio=1.40 / aq=1:1.30
Language : English
Default : Yes
Forced : No

Audio #1
ID : 2
Format : AC-3
Format/Info : Audio Coding 3
Commercial name : Dolby Digital
Codec ID : A_AC3
Duration : 2 h 24 min
Bit rate mode : Constant
Bit rate : 384 kb/s
Channel(s) : 2 channels
Channel layout : L R
Sampling rate : 48.0 kHz
Frame rate : 31.250 FPS (1536 SPF)
Compression mode : Lossy
Stream size : 396 MiB (9%)
Title : Thai Master
Language : Thai
Service kind : Complete Main
Default : Yes
Forced : Yes

Audio #2
ID : 3
Format : DTS
Format/Info : Digital Theater Systems
Codec ID : A_DTS
Duration : 2 h 24 min
Bit rate mode : Constant
Bit rate : 755 kb/s
Channel(s) : 6 channels
Channel layout : C L R Ls Rs LFE
Sampling rate : 48.0 kHz
Frame rate : 93.750 FPS (512 SPF)
Bit depth : 24 bits
Compression mode : Lossy
Stream size : 779 MiB (17%)
Title : English DTS-5.1
Language : English
Default : No
Forced : No

Text #1
ID : 4
Format : PGS
Codec ID : S_HDMV/PGS
Codec ID/Info : Picture based subtitle format used on BDs/HD-DVDs
Duration : 2 h 24 min
Bit rate : 55.1 kb/s
Count of elements : 4722
Stream size : 56.7 MiB (1%)
Title : Thai 1080p PGS
Language : Thai
Default : Yes
Forced : Yes

Text #2
ID : 5
Format : VobSub
Codec ID : S_VOBSUB
Codec ID/Info : Picture based subtitle format used on DVDs
Duration : 2 h 24 min
Bit rate : 13.1 kb/s
Count of elements : 2356
Stream size : 13.5 MiB (0%)
Title : Thai 1080p
Language : Thai
Default : No
Forced : No

Text #3
ID : 6
Format : PGS
Codec ID : S_HDMV/PGS
Codec ID/Info : Picture based subtitle format used on BDs/HD-DVDs
Duration : 2 h 24 min
Bit rate : 54.1 kb/s
Count of elements : 4722
Stream size : 55.8 MiB (1%)
Title : Thai 1080p Out PGS
Language : Thai
Default : No
Forced : No

Text #4
ID : 7
Format : VobSub
Codec ID : S_VOBSUB
Codec ID/Info : Picture based subtitle format used on DVDs
Duration : 2 h 24 min
Bit rate : 12.9 kb/s
Count of elements : 2356
Stream size : 13.3 MiB (0%)
Title : Thai 1080p Out
Language : Thai
Default : No
Forced : No

Text #5
ID : 8
Format : VobSub
Codec ID : S_VOBSUB
Codec ID/Info : Picture based subtitle format used on DVDs
Duration : 2 h 24 min
Bit rate : 18.0 kb/s
Count of elements : 2356
Stream size : 18.5 MiB (0%)
Title : Thai 1080p Big [Yellow]
Language : Thai
Default : No
Forced : No

Text #6
ID : 9
Format : PGS
Codec ID : S_HDMV/PGS
Codec ID/Info : Picture based subtitle format used on BDs/HD-DVDs
Duration : 2 h 16 min
Bit rate : 51.1 kb/s
Count of elements : 4934
Stream size : 49.8 MiB (1%)
Title : English PGS
Language : English
Default : No
Forced : No

Text #7
ID : 10
Format : UTF-8
Codec ID : S_TEXT/UTF8
Codec ID/Info : UTF-8 Plain Text
Duration : 2 h 15 min
Bit rate : 80 b/s
Count of elements : 2332
Stream size : 80.4 KiB (0%)
Title : English SRT
Language : Thai
Default : No
Forced : No

Menu
00:00:00.000 : en:00:00:00.000
00:09:57.847 : en:00:09:57.847
00:19:20.326 : en:00:19:20.326
00:29:14.586 : en:00:29:14.586
00:38:47.575 : en:00:38:47.575
00:46:33.958 : en:00:46:33.958
00:54:01.822 : en:00:54:01.822
01:02:12.604 : en:01:02:12.604
01:08:42.618 : en:01:08:42.618
01:17:48.205 : en:01:17:48.205
01:26:55.919 : en:01:26:55.919
01:34:07.350 : en:01:34:07.350
01:41:25.705 : en:01:41:25.705
01:50:29.289 : en:01:50:29.289
02:00:21.005 : en:02:00:21.005
02:07:02.824 : en:02:07:02.824
02:17:16.603 : en:02:17:16.603

DOWNLOAD


PART01 |||| PART02 |||| PART03 |||| PART04 |||| PART05

PART01 |||| PART02 |||| PART03 |||| PART04 |||| PART05

PART01 |||| PART02 |||| PART03 |||| PART04 |||| PART05

PART01 |||| PART02 |||| PART03 |||| PART04 |||| PART05

PART01 |||| PART02 |||| PART03 |||| PART04 |||| PART05


Leave A Reply

อีเมล์ของคุณจะไม่แสดงให้เห็น Your email address will not be published.

%d bloggers like this: